  0
SECTION
  2
HEADER
  9
$ACADVER
  1
AC1015
  9
$ACADMAINTVER
 70
     6
  9
$DWGCODEPAGE
  3
ANSI_1252
  9
$INSBASE
 10
0.0
 20
0.0
 30
0.0
  9
$EXTMIN
 10
-416.9056485675032
 20
-271.332382905608
 30
0.0
  9
$EXTMAX
 10
-119.9056485675051
 20
-61.33238290560786
 30
0.0
  9
$LIMMIN
 10
0.0
 20
0.0
  9
$LIMMAX
 10
12.0
 20
9.0
  9
$ORTHOMODE
 70
     0
  9
$REGENMODE
 70
     1
  9
$FILLMODE
 70
     1
  9
$QTEXTMODE
 70
     0
  9
$MIRRTEXT
 70
     1
  9
$LTSCALE
 40
1.0
  9
$ATTMODE
 70
     1
  9
$TEXTSIZE
 40
0.2
  9
$TRACEWID
 40
0.05
  9
$TEXTSTYLE
  7
Standard
  9
$CLAYER
  8
0
  9
$CELTYPE
  6
ByLayer
  9
$CECOLOR
 62
   256
  9
$CELTSCALE
 40
1.0
  9
$DISPSILH
 70
     0
  9
$DIMSCALE
 40
1.0
  9
$DIMASZ
 40
0.18
  9
$DIMEXO
 40
0.0625
  9
$DIMDLI
 40
0.38
  9
$DIMRND
 40
0.0
  9
$DIMDLE
 40
0.0
  9
$DIMEXE
 40
0.18
  9
$DIMTP
 40
0.0
  9
$DIMTM
 40
0.0
  9
$DIMTXT
 40
0.18
  9
$DIMCEN
 40
0.09
  9
$DIMTSZ
 40
0.0
  9
$DIMTOL
 70
     0
  9
$DIMLIM
 70
     0
  9
$DIMTIH
 70
     1
  9
$DIMTOH
 70
     1
  9
$DIMSE1
 70
     0
  9
$DIMSE2
 70
     0
  9
$DIMTAD
 70
     0
  9
$DIMZIN
 70
     0
  9
$DIMBLK
  1

  9
$DIMASO
 70
     1
  9
$DIMSHO
 70
     1
  9
$DIMPOST
  1

  9
$DIMAPOST
  1

  9
$DIMALT
 70
     0
  9
$DIMALTD
 70
     2
  9
$DIMALTF
 40
25.4
  9
$DIMLFAC
 40
1.0
  9
$DIMTOFL
 70
     0
  9
$DIMTVP
 40
0.0
  9
$DIMTIX
 70
     0
  9
$DIMSOXD
 70
     0
  9
$DIMSAH
 70
     0
  9
$DIMBLK1
  1

  9
$DIMBLK2
  1

  9
$DIMSTYLE
  2
Standard
  9
$DIMCLRD
 70
     0
  9
$DIMCLRE
 70
     0
  9
$DIMCLRT
 70
     0
  9
$DIMTFAC
 40
1.0
  9
$DIMGAP
 40
0.09
  9
$DIMJUST
 70
     0
  9
$DIMSD1
 70
     0
  9
$DIMSD2
 70
     0
  9
$DIMTOLJ
 70
     1
  9
$DIMTZIN
 70
     0
  9
$DIMALTZ
 70
     0
  9
$DIMALTTZ
 70
     0
  9
$DIMUPT
 70
     0
  9
$DIMDEC
 70
     4
  9
$DIMTDEC
 70
     4
  9
$DIMALTU
 70
     2
  9
$DIMALTTD
 70
     2
  9
$DIMTXSTY
  7
Standard
  9
$DIMAUNIT
 70
     0
  9
$DIMADEC
 70
     0
  9
$DIMALTRND
 40
0.0
  9
$DIMAZIN
 70
     0
  9
$DIMDSEP
 70
    46
  9
$DIMATFIT
 70
     3
  9
$DIMFRAC
 70
     0
  9
$DIMLDRBLK
  1

  9
$DIMLUNIT
 70
     2
  9
$DIMLWD
 70
    -2
  9
$DIMLWE
 70
    -2
  9
$DIMTMOVE
 70
     0
  9
$LUNITS
 70
     2
  9
$LUPREC
 70
     4
  9
$SKETCHINC
 40
0.1
  9
$FILLETRAD
 40
0.5
  9
$AUNITS
 70
     0
  9
$AUPREC
 70
     0
  9
$MENU
  1
.
  9
$ELEVATION
 40
0.0
  9
$PELEVATION
 40
0.0
  9
$THICKNESS
 40
0.0
  9
$LIMCHECK
 70
     0
  9
$CHAMFERA
 40
0.5
  9
$CHAMFERB
 40
0.5
  9
$CHAMFERC
 40
1.0
  9
$CHAMFERD
 40
0.0
  9
$SKPOLY
 70
     0
  9
$TDCREATE
 40
2457521.57362147
  9
$TDUCREATE
 40
2457521.490288137
  9
$TDUPDATE
 40
2457521.573622558
  9
$TDUUPDATE
 40
2457521.490289224
  9
$TDINDWG
 40
0.0000000116
  9
$TDUSRTIMER
 40
0.0000000116
  9
$USRTIMER
 70
     1
  9
$ANGBASE
 50
0.0
  9
$ANGDIR
 70
     0
  9
$PDMODE
 70
     0
  9
$PDSIZE
 40
0.0
  9
$PLINEWID
 40
0.0
  9
$SPLFRAME
 70
     0
  9
$SPLINETYPE
 70
     6
  9
$SPLINESEGS
 70
     8
  9
$HANDSEED
  5
236
  9
$SURFTAB1
 70
     6
  9
$SURFTAB2
 70
     6
  9
$SURFTYPE
 70
     6
  9
$SURFU
 70
     6
  9
$SURFV
 70
     6
  9
$UCSBASE
  2

  9
$UCSNAME
  2

  9
$UCSORG
 10
0.0
 20
0.0
 30
0.0
  9
$UCSXDIR
 10
1.0
 20
0.0
 30
0.0
  9
$UCSYDIR
 10
0.0
 20
1.0
 30
0.0
  9
$UCSORTHOREF
  2

  9
$UCSORTHOVIEW
 70
     0
  9
$UCSORGTOP
 10
0.0
 20
0.0
 30
0.0
  9
$UCSORGBOTTOM
 10
0.0
 20
0.0
 30
0.0
  9
$UCSORGLEFT
 10
0.0
 20
0.0
 30
0.0
  9
$UCSORGRIGHT
 10
0.0
 20
0.0
 30
0.0
  9
$UCSORGFRONT
 10
0.0
 20
0.0
 30
0.0
  9
$UCSORGBACK
 10
0.0
 20
0.0
 30
0.0
  9
$PUCSBASE
  2

  9
$PUCSNAME
  2

  9
$PUCSORG
 10
0.0
 20
0.0
 30
0.0
  9
$PUCSXDIR
 10
1.0
 20
0.0
 30
0.0
  9
$PUCSYDIR
 10
0.0
 20
1.0
 30
0.0
  9
$PUCSORTHOREF
  2

  9
$PUCSORTHOVIEW
 70
     0
  9
$PUCSORGTOP
 10
0.0
 20
0.0
 30
0.0
  9
$PUCSORGBOTTOM
 10
0.0
 20
0.0
 30
0.0
  9
$PUCSORGLEFT
 10
0.0
 20
0.0
 30
0.0
  9
$PUCSORGRIGHT
 10
0.0
 20
0.0
 30
0.0
  9
$PUCSORGFRONT
 10
0.0
 20
0.0
 30
0.0
  9
$PUCSORGBACK
 10
0.0
 20
0.0
 30
0.0
  9
$USERI1
 70
     0
  9
$USERI2
 70
     0
  9
$USERI3
 70
     0
  9
$USERI4
 70
     0
  9
$USERI5
 70
     0
  9
$USERR1
 40
18.1
  9
$USERR2
 40
0.0
  9
$USERR3
 40
0.0
  9
$USERR4
 40
0.0
  9
$USERR5
 40
0.0
  9
$WORLDVIEW
 70
     1
  9
$SHADEDGE
 70
     3
  9
$SHADEDIF
 70
    70
  9
$TILEMODE
 70
     1
  9
$MAXACTVP
 70
    64
  9
$PINSBASE
 10
0.0
 20
0.0
 30
0.0
  9
$PLIMCHECK
 70
     0
  9
$PEXTMIN
 10
1.00000000000000E+20
 20
1.00000000000000E+20
 30
1.00000000000000E+20
  9
$PEXTMAX
 10
-1.00000000000000E+20
 20
-1.00000000000000E+20
 30
-1.00000000000000E+20
  9
$PLIMMIN
 10
0.0
 20
0.0
  9
$PLIMMAX
 10
12.0
 20
9.0
  9
$UNITMODE
 70
     0
  9
$VISRETAIN
 70
     1
  9
$PLINEGEN
 70
     0
  9
$PSLTSCALE
 70
     1
  9
$TREEDEPTH
 70
  3020
  9
$CMLSTYLE
  2
Standard
  9
$CMLJUST
 70
     0
  9
$CMLSCALE
 40
1.0
  9
$PROXYGRAPHICS
 70
     1
  9
$MEASUREMENT
 70
     1
  9
$CELWEIGHT
370
    -1
  9
$ENDCAPS
280
     0
  9
$JOINSTYLE
280
     0
  9
$LWDISPLAY
290
     0
  9
$INSUNITS
 70
     4
  9
$HYPERLINKBASE
  1

  9
$STYLESHEET
  1

  9
$XEDIT
290
     1
  9
$CEPSNTYPE
380
     0
  9
$PSTYLEMODE
290
     1
  9
$FINGERPRINTGUID
  2
{38E4346E-9021-403E-9F86-82F1C500E723}
  9
$VERSIONGUID
  2
{FAEB1C32-E019-11D5-929B-00C0DF256EC4}
  9
$EXTNAMES
290
     1
  9
$PSVPSCALE
 40
0.0
  9
$OLESTARTUP
290
     0
  0
ENDSEC
  0
SECTION
  2
CLASSES
  0
CLASS
  1
ACDBDICTIONARYWDFLT
  2
AcDbDictionaryWithDefault
  3
ObjectDBX Classes
 90
        0
280
     0
281
     0
  0
CLASS
  1
VISUALSTYLE
  2
AcDbVisualStyle
  3
ObjectDBX Classes
 90
     4095
280
     0
281
     0
  0
CLASS
  1
MATERIAL
  2
AcDbMaterial
  3
ObjectDBX Classes
 90
     1153
280
     0
281
     0
  0
CLASS
  1
DICTIONARYVAR
  2
AcDbDictionaryVar
  3
ObjectDBX Classes
 90
        0
280
     0
281
     0
  0
CLASS
  1
ACDBPLACEHOLDER
  2
AcDbPlaceHolder
  3
ObjectDBX Classes
 90
        0
280
     0
281
     0
  0
CLASS
  1
LAYOUT
  2
AcDbLayout
  3
ObjectDBX Classes
 90
        0
280
     0
281
     0
  0
ENDSEC
  0
SECTION
  2
TABLES
  0
TABLE
  2
VPORT
  5
8
330
0
100
AcDbSymbolTable
 70
     1
  0
VPORT
  5
29
330
8
100
AcDbSymbolTableRecord
100
AcDbViewportTableRecord
  2
*Active
 70
     0
 10
0.0
 20
0.0
 11
1.0
 21
1.0
 12
-268.4056485675042
 22
-166.3323829056079
 13
0.0
 23
0.0
 14
0.5
 24
0.5
 15
0.5
 25
0.5
 16
0.0
 26
0.0
 36
1.0
 17
0.0
 27
0.0
 37
0.0
 40
231.0000000000001
 41
1.60267857142857
 42
50.0
 43
0.0
 44
0.0
 50
0.0
 51
0.0
 71
     0
 72
   100
 73
     1
 74
     3
 75
     0
 76
     0
 77
     0
 78
     0
281
     0
 65
     1
110
0.0
120
0.0
130
0.0
111
1.0
121
0.0
131
0.0
112
0.0
122
1.0
132
0.0
 79
     0
146
0.0
  0
ENDTAB
  0
TABLE
  2
LTYPE
  5
5
330
0
100
AcDbSymbolTable
 70
     8
  0
LTYPE
  5
14
330
5
100
AcDbSymbolTableRecord
100
AcDbLinetypeTableRecord
  2
ByBlock
 70
     0
  3

 72
    65
 73
     0
 40
0.0
  0
LTYPE
  5
15
330
5
100
AcDbSymbolTableRecord
100
AcDbLinetypeTableRecord
  2
ByLayer
 70
     0
  3

 72
    65
 73
     0
 40
0.0
  0
LTYPE
  5
16
330
5
100
AcDbSymbolTableRecord
100
AcDbLinetypeTableRecord
  2
Continuous
 70
     0
  3
Solid line
 72
    65
 73
     0
 40
0.0
  0
LTYPE
  5
3F
330
5
100
AcDbSymbolTableRecord
100
AcDbLinetypeTableRecord
  2
DASHED
 70
     0
  3
Dashed
 72
    65
 73
     2
 40
15.0
 49
7.0
 74
     0
 49
-8.0
 74
     0
  0
LTYPE
  5
40
330
5
100
AcDbSymbolTableRecord
100
AcDbLinetypeTableRecord
  2
DOTTED
 70
     0
  3
Dotted
 72
    65
 73
     2
 40
1.0
 49
0.0
 74
     0
 49
-1.0
 74
     0
  0
LTYPE
  5
41
330
5
100
AcDbSymbolTableRecord
100
AcDbLinetypeTableRecord
  2
DOT_CENTER
 70
     0
  3
Dot_Center
 72
    65
 73
     4
 40
14.0
 49
12.0
 74
     0
 49
-1.0
 74
     0
 49
0.0
 74
     0
 49
-1.0
 74
     0
  0
LTYPE
  5
42
330
5
100
AcDbSymbolTableRecord
100
AcDbLinetypeTableRecord
  2
LONG_DASHED
 70
     0
  3
Long_Dashed
 72
    65
 73
     2
 40
15.0
 49
10.0
 74
     0
 49
-5.0
 74
     0
  0
LTYPE
  5
43
330
5
100
AcDbSymbolTableRecord
100
AcDbLinetypeTableRecord
  2
DASH_CENTER
 70
     0
  3
Dash_Center
 72
    65
 73
     4
 40
14.0
 49
11.0
 74
     0
 49
-1.0
 74
     0
 49
1.0
 74
     0
 49
-1.0
 74
     0
  0
LTYPE
  5
44
330
5
100
AcDbSymbolTableRecord
100
AcDbLinetypeTableRecord
  2
PHANTOM
 70
     0
  3
Phantom
 72
    65
 73
     6
 40
13.0
 49
10.0
 74
     0
 49
-1.0
 74
     0
 49
0.0
 74
     0
 49
-1.0
 74
     0
 49
0.0
 74
     0
 49
-1.0
 74
     0
  0
LTYPE
  5
45
330
5
100
AcDbSymbolTableRecord
100
AcDbLinetypeTableRecord
  2
CENTER_DASH_DASH
 70
     0
  3
Center_Dash_Dash
 72
    65
 73
     6
 40
14.0
 49
9.0
 74
     0
 49
-1.0
 74
     0
 49
1.0
 74
     0
 49
-1.0
 74
     0
 49
1.0
 74
     0
 49
-1.0
 74
     0
  0
ENDTAB
  0
TABLE
  2
LAYER
  5
2
330
0
100
AcDbSymbolTable
 70
     2
  0
LAYER
  5
10
330
2
100
AcDbSymbolTableRecord
100
AcDbLayerTableRecord
  2
0
 70
     0
 62
     7
  6
Continuous
370
    -3
390
F
  0
LAYER
  5
46
330
2
100
AcDbSymbolTableRecord
100
AcDbLayerTableRecord
  2
1
 70
     0
 62
     7
  6
Continuous
370
    -3
390
F
  0
ENDTAB
  0
TABLE
  2
STYLE
  5
3
330
0
100
AcDbSymbolTable
 70
     5
  0
STYLE
  5
11
330
3
100
AcDbSymbolTableRecord
100
AcDbTextStyleTableRecord
  2
Standard
 70
     0
 40
0.0
 41
1.0
 50
0.0
 71
     0
 42
0.2
  3
txt
  4

  0
STYLE
  5
179
330
3
100
AcDbSymbolTableRecord
100
AcDbTextStyleTableRecord
  2
CONVERTER_11
 70
     0
 40
0.0
 41
0.9
 50
0.0
 71
     0
 42
0.2
  3
txt.shx
  4

  0
STYLE
  5
17B
330
3
100
AcDbSymbolTableRecord
100
AcDbTextStyleTableRecord
  2
CONVERTER_12
 70
     0
 40
0.0
 41
0.81
 50
0.0
 71
     0
 42
0.2
  3
txt.shx
  4

  0
STYLE
  5
181
330
3
100
AcDbSymbolTableRecord
100
AcDbTextStyleTableRecord
  2
CONVERTER_13
 70
     0
 40
0.0
 41
0.855
 50
0.0
 71
     0
 42
0.2
  3
txt.shx
  4

  0
STYLE
  5
184
330
3
100
AcDbSymbolTableRecord
100
AcDbTextStyleTableRecord
  2
CONVERTER_14
 70
     0
 40
0.0
 41
0.72
 50
0.0
 71
     0
 42
0.2
  3
txt.shx
  4

  0
ENDTAB
  0
TABLE
  2
VIEW
  5
6
330
0
100
AcDbSymbolTable
 70
     0
  0
ENDTAB
  0
TABLE
  2
UCS
  5
7
330
0
100
AcDbSymbolTable
 70
     0
  0
ENDTAB
  0
TABLE
  2
APPID
  5
9
330
0
100
AcDbSymbolTable
 70
     1
  0
APPID
  5
12
330
9
100
AcDbSymbolTableRecord
100
AcDbRegAppTableRecord
  2
ACAD
 70
     0
  0
ENDTAB
  0
TABLE
  2
DIMSTYLE
  5
A
330
0
100
AcDbSymbolTable
 70
     3
100
AcDbDimStyleTable
  0
DIMSTYLE
105
27
330
A
100
AcDbSymbolTableRecord
100
AcDbDimStyleTableRecord
  2
Standard
 70
     0
178
     0
340
11
  0
DIMSTYLE
105
1FE
102
{ACAD_REACTORS
330
1FF
102
}
330
A
100
AcDbSymbolTableRecord
100
AcDbDimStyleTableRecord
  2
ME10_DIM_10
 70
     0
  3
ø<>
 41
0.7
 42
0.0
 44
0.3
 73
     0
 74
     0
 77
     1
 78
     8
140
0.7
147
0.3
172
     1
173
     1
174
     1
175
     1
176
     2
177
     2
271
     1
178
     3
271
     1
340
179
  0
DIMSTYLE
105
209
102
{ACAD_REACTORS
330
20A
102
}
330
A
100
AcDbSymbolTableRecord
100
AcDbDimStyleTableRecord
  2
ME10_DIM_11
 70
     0
 41
0.7
 42
0.0
 44
0.3
 73
     0
 74
     0
 77
     1
 78
     8
140
0.7
147
0.3
172
     1
173
     1
174
     1
175
     1
176
     2
177
     2
271
     1
178
     3
271
     1
340
179
  0
ENDTAB
  0
TABLE
  2
BLOCK_RECORD
  5
1
330
0
100
AcDbSymbolTable
 70
    18
  0
BLOCK_RECORD
  5
1F
330
1
100
AcDbSymbolTableRecord
100
AcDbBlockTableRecord
  2
*Model_Space
340
22
  0
BLOCK_RECORD
  5
1B
330
1
100
AcDbSymbolTableRecord
100
AcDbBlockTableRecord
  2
*Paper_Space
340
1E
  0
BLOCK_RECORD
  5
23
330
1
100
AcDbSymbolTableRecord
100
AcDbBlockTableRecord
  2
*Paper_Space0
340
26
  0
BLOCK_RECORD
  5
47
330
1
100
AcDbSymbolTableRecord
100
AcDbBlockTableRecord
  2
_rahmen
340
0
102
{BLKREFS
331
4E
102
}
  0
BLOCK_RECORD
  5
4A
330
1
100
AcDbSymbolTableRecord
100
AcDbBlockTableRecord
  2
_punkt
340
0
102
{BLKREFS
331
4F
102
}
  0
BLOCK_RECORD
  5
4D
330
1
100
AcDbSymbolTableRecord
100
AcDbBlockTableRecord
  2
A4I_CS
340
0
102
{BLKREFS
331
7C
102
}
  0
BLOCK_RECORD
  5
52
330
1
100
AcDbSymbolTableRecord
100
AcDbBlockTableRecord
  2
3200425_A_16_12-select__1
340
0
102
{BLKREFS
331
56
102
}
  0
BLOCK_RECORD
  5
55
330
1
100
AcDbSymbolTableRecord
100
AcDbBlockTableRecord
  2
Allg1
340
0
102
{BLKREFS
331
7D
102
}
  0
BLOCK_RECORD
  5
59
330
1
100
AcDbSymbolTableRecord
100
AcDbBlockTableRecord
  2
3200425_A_16_12-select__2
340
0
102
{BLKREFS
331
5D
102
}
  0
BLOCK_RECORD
  5
5C
330
1
100
AcDbSymbolTableRecord
100
AcDbBlockTableRecord
  2
Drfsicht1
340
0
102
{BLKREFS
331
7E
102
}
  0
BLOCK_RECORD
  5
60
330
1
100
AcDbSymbolTableRecord
100
AcDbBlockTableRecord
  2
3200425_A_16_12-select__3
340
0
102
{BLKREFS
331
64
102
}
  0
BLOCK_RECORD
  5
63
330
1
100
AcDbSymbolTableRecord
100
AcDbBlockTableRecord
  2
Rckans1
340
0
102
{BLKREFS
331
7F
102
}
  0
BLOCK_RECORD
  5
67
330
1
100
AcDbSymbolTableRecord
100
AcDbBlockTableRecord
  2
3200425_A_16_12-select__4
340
0
102
{BLKREFS
331
6B
102
}
  0
BLOCK_RECORD
  5
6A
330
1
100
AcDbSymbolTableRecord
100
AcDbBlockTableRecord
  2
SA_Links1
340
0
102
{BLKREFS
331
80
102
}
  0
BLOCK_RECORD
  5
6E
330
1
100
AcDbSymbolTableRecord
100
AcDbBlockTableRecord
  2
3200425_A_16_12-select__5
340
0
102
{BLKREFS
331
72
102
}
  0
BLOCK_RECORD
  5
71
330
1
100
AcDbSymbolTableRecord
100
AcDbBlockTableRecord
  2
SA_Rechts1
340
0
102
{BLKREFS
331
81
102
}
  0
BLOCK_RECORD
  5
75
330
1
100
AcDbSymbolTableRecord
100
AcDbBlockTableRecord
  2
3200425_A_16_12-select__6
340
0
102
{BLKREFS
331
79
102
}
  0
BLOCK_RECORD
  5
78
330
1
100
AcDbSymbolTableRecord
100
AcDbBlockTableRecord
  2
Vordans1
340
0
102
{BLKREFS
331
82
102
}
  0
BLOCK_RECORD
  5
1F5
330
1
100
AcDbSymbolTableRecord
100
AcDbBlockTableRecord
  2
*D16
340
0
  0
BLOCK_RECORD
  5
200
330
1
100
AcDbSymbolTableRecord
100
AcDbBlockTableRecord
  2
*D17
340
0
  0
ENDTAB
  0
ENDSEC
  0
SECTION
  2
BLOCKS
  0
BLOCK
  5
20
330
1F
100
AcDbEntity
  8
0
100
AcDbBlockBegin
  2
*Model_Space
 70
     0
 10
0.0
 20
0.0
 30
0.0
  3
*Model_Space
  1

  0
ENDBLK
  5
21
330
1F
100
AcDbEntity
  8
0
100
AcDbBlockEnd
  0
BLOCK
  5
1C
330
1B
100
AcDbEntity
 67
     1
  8
0
100
AcDbBlockBegin
  2
*Paper_Space
 70
     0
 10
0.0
 20
0.0
 30
0.0
  3
*Paper_Space
  1

  0
ENDBLK
  5
1D
330
1B
100
AcDbEntity
 67
     1
  8
0
100
AcDbBlockEnd
  0
BLOCK
  5
24
330
23
100
AcDbEntity
  8
0
100
AcDbBlockBegin
  2
*Paper_Space0
 70
     0
 10
0.0
 20
0.0
 30
0.0
  3
*Paper_Space0
  1

  0
ENDBLK
  5
25
330
23
100
AcDbEntity
  8
0
100
AcDbBlockEnd
  0
BLOCK
  5
48
330
47
100
AcDbEntity
  8
0
100
AcDbBlockBegin
  2
_rahmen
 70
     0
 10
-124.9056485675041
 20
-271.332382905608
 30
0.0
  3
_rahmen
  1

  0
LINE
  5
83
330
47
100
AcDbEntity
  8
1
  6
DOT_CENTER
 62
     2
100
AcDbLine
 10
-250.4637982076915
 20
-245.2073829056079
 30
0.0
 11
-244.9637982076915
 21
-245.2073829056079
 31
0.0
  0
LINE
  5
84
330
47
100
AcDbEntity
  8
1
  6
PHANTOM
 62
     2
100
AcDbLine
 10
-241.7137982076915
 20
-242.4573829056079
 30
0.0
 11
-241.7137982076915
 21
-247.9573829056079
 31
0.0
  0
LINE
  5
85
330
47
100
AcDbEntity
  8
1
  6
PHANTOM
 62
     2
100
AcDbLine
 10
-238.9637982076915
 20
-245.2073829056079
 30
0.0
 11
-244.4637982076915
 21
-245.2073829056079
 31
0.0
  0
LINE
  5
86
330
47
100
AcDbEntity
  8
1
  6
Continuous
 62
     7
100
AcDbLine
 10
-190.1504530942541
 20
-257.8323829056079
 30
0.0
 11
-190.1504530942541
 21
-249.3323829056079
 31
0.0
  0
LINE
  5
87
330
47
100
AcDbEntity
  8
1
  6
Continuous
 62
     6
100
AcDbLine
 10
-218.0504530942542
 20
-249.3323829056079
 30
0.0
 11
-124.9056485675024
 21
-249.3323829056079
 31
0.0
  0
LINE
  5
88
330
47
100
AcDbEntity
  8
1
  6
Continuous
 62
     7
100
AcDbLine
 10
-254.4504530942541
 20
-249.3323829056079
 30
0.0
 11
-254.4504530942541
 21
-240.8323829056079
 31
0.0
  0
LINE
  5
89
330
47
100
AcDbEntity
  8
1
  6
Continuous
 62
     7
100
AcDbLine
 10
-218.0504530942542
 20
-249.3323829056079
 30
0.0
 11
-218.0504530942542
 21
-240.8323829056079
 31
0.0
  0
LINE
  5
8A
330
47
100
AcDbEntity
  8
1
  6
Continuous
 62
     7
100
AcDbLine
 10
-160.3240568491812
 20
-240.8323829056079
 30
0.0
 11
-160.3240568491812
 21
-249.3323829056079
 31
0.0
  0
LINE
  5
8B
330
47
100
AcDbEntity
  8
1
  6
Continuous
 62
     7
100
AcDbLine
 10
-133.8240568491816
 20
-240.8323829056079
 30
0.0
 11
-133.8240568491816
 21
-249.3323829056079
 31
0.0
  0
LINE
  5
8C
330
47
100
AcDbEntity
  8
1
  6
Continuous
 62
     6
100
AcDbLine
 10
-323.4504530942541
 20
-266.3323829056079
 30
0.0
 11
-368.4056485675041
 21
-266.3323829056079
 31
0.0
  0
LINE
  5
8D
330
47
100
AcDbEntity
  8
1
  6
Continuous
 62
     7
100
AcDbLine
 10
-124.9056485675028
 20
-257.8323829056079
 30
0.0
 11
-218.0504530942542
 21
-257.8323829056079
 31
0.0
  0
LINE
  5
8E
102
{ACAD_REACTORS
330
1A1
330
1A2
102
}
330
47
100
AcDbEntity
  8
0
  6
Continuous
 62
     2
100
AcDbLine
 10
-240.7430241524867
 20
-257.0320937899446
 30
0.0
 11
-240.7430241524867
 21
-256.1595767831412
 31
0.0
  0
LINE
  5
8F
102
{ACAD_REACTORS
330
1A1
330
1A2
102
}
330
47
100
AcDbEntity
  8
0
  6
Continuous
 62
     2
100
AcDbLine
 10
-240.7430241524867
 20
-257.9918624974275
 30
0.0
 11
-240.7430241524867
 21
-258.8643795042307
 31
0.0
  0
LINE
  5
90
102
{ACAD_REACTORS
330
1A3
330
1A4
102
}
330
47
100
AcDbEntity
  8
0
  6
Continuous
 62
     2
100
AcDbLine
 10
-225.4099800161962
 20
-256.7703386879041
 30
0.0
 11
-224.3063407166281
 21
-256.7703386879041
 31
0.0
  0
LINE
  5
91
102
{ACAD_REACTORS
330
1A3
330
1A4
102
}
330
47
100
AcDbEntity
  8
0
  6
Continuous
 62
     2
100
AcDbLine
 10
-224.6403226732348
 20
-257.991862497428
 30
0.0
 11
-224.6403226732348
 21
-258.8643795042312
 31
0.0
  0
LINE
  5
92
102
{ACAD_REACTORS
330
1AD
330
1AE
102
}
330
47
100
AcDbEntity
  8
0
  6
Continuous
 62
     2
100
AcDbLine
 10
-226.5010792886147
 20
-255.6796924294173
 30
0.0
 11
-225.1031262416744
 21
-254.0988334356423
 31
0.0
  0
LINE
  5
93
102
{ACAD_REACTORS
330
1AD
330
1AE
102
}
330
47
100
AcDbEntity
  8
0
  6
Continuous
 62
     2
100
AcDbLine
 10
-226.4056558724419
 20
-252.6258829056061
 30
0.0
 11
-225.1031262416744
 21
-254.0988334356423
 31
0.0
  0
LINE
  5
94
102
{ACAD_REACTORS
330
1AD
330
1AE
102
}
330
47
100
AcDbEntity
  8
0
  6
Continuous
 62
     2
100
AcDbLine
 10
-223.800596610908
 20
-252.6258829056061
 30
0.0
 11
-222.3978723931608
 21
-252.6258829056061
 31
0.0
  0
LINE
  5
95
102
{ACAD_REACTORS
330
1AD
330
1AE
102
}
330
47
100
AcDbEntity
  8
0
  6
Continuous
 62
     2
100
AcDbLine
 10
-225.0983550708665
 20
-255.6796924294173
 30
0.0
 11
-224.4017641328008
 21
-254.8919606441235
 31
0.0
  0
LINE
  5
96
102
{ACAD_REACTORS
330
1AD
330
1AE
102
}
330
47
100
AcDbEntity
  8
0
  6
Continuous
 62
     2
100
AcDbLine
 10
-225.0983550708665
 20
-255.6796924294173
 30
0.0
 11
-226.5010792886147
 21
-255.6796924294173
 31
0.0
  0
LINE
  5
97
102
{ACAD_REACTORS
330
1AF
330
1B0
102
}
330
47
100
AcDbEntity
  8
0
  6
Continuous
 62
     2
100
AcDbLine
 10
-226.6203585588316
 20
-255.6796924294173
 30
0.0
 11
-227.8608629690845
 21
-255.6796924294173
 31
0.0
  0
LINE
  5
98
102
{ACAD_REACTORS
330
1B1
330
1B2
102
}
330
47
100
AcDbEntity
  8
0
  6
Continuous
 62
     2
100
AcDbLine
 10
-228.7288425772396
 20
-257.8173590960671
 30
0.0
 11
-229.0290078144297
 21
-257.0495441300803
 31
0.0
  0
LINE
  5
99
102
{ACAD_REACTORS
330
1B1
330
1B2
102
}
330
47
100
AcDbEntity
  8
0
  6
Continuous
 62
     2
100
AcDbLine
 10
-229.3291730516221
 20
-257.8173590960671
 30
0.0
 11
-228.7288425772396
 21
-257.8173590960671
 31
0.0
  0
LINE
  5
9A
102
{ACAD_REACTORS
330
1B1
330
1B2
102
}
330
47
100
AcDbEntity
  8
0
  6
Continuous
 62
     2
100
AcDbLine
 10
-231.0472130664959
 20
-259.0388829055916
 30
0.0
 11
-229.8067086562429
 21
-259.0388829055916
 31
0.0
  0
LINE
  5
9B
102
{ACAD_REACTORS
330
1B1
330
1B2
102
}
330
47
100
AcDbEntity
  8
0
  6
Continuous
 62
     2
100
AcDbLine
 10
-229.6492600195566
 20
-255.9850733817805
 30
0.0
 11
-228.4087556093039
 21
-255.9850733817805
 31
0.0
  0
LINE
  5
9C
102
{ACAD_REACTORS
330
1B1
330
1B2
102
}
330
47
100
AcDbEntity
  8
0
  6
Continuous
 62
     2
100
AcDbLine
 10
-228.4087556093039
 20
-255.9850733817805
 30
0.0
 11
-227.0108025623636
 21
-259.0388829055916
 31
0.0
  0
LINE
  5
9D
102
{ACAD_REACTORS
330
1B1
330
1B2
102
}
330
47
100
AcDbEntity
  8
0
  6
Continuous
 62
     2
100
AcDbLine
 10
-228.2513069726175
 20
-259.0388829055916
 30
0.0
 11
-228.4627870260933
 21
-258.4979223613736
 31
0.0
  0
LINE
  5
9E
102
{ACAD_REACTORS
330
1B3
330
1B4
102
}
330
47
100
AcDbEntity
  8
0
  6
Continuous
 62
     2
100
AcDbLine
 10
-232.3936261682035
 20
-259.0388829055916
 30
0.0
 11
-231.200833466037
 21
-259.0388829055916
 31
0.0
  0
LINE
  5
9F
102
{ACAD_REACTORS
330
1B3
330
1B4
102
}
330
47
100
AcDbEntity
  8
0
  6
Continuous
 62
     2
100
AcDbLine
 10
-232.3936261682035
 20
-256.7703386879041
 30
0.0
 11
-232.3936261682035
 21
-259.0388829055916
 31
0.0
  0
LINE
  5
A0
102
{ACAD_REACTORS
330
1B3
330
1B4
102
}
330
47
100
AcDbEntity
  8
0
  6
Continuous
 62
     2
100
AcDbLine
 10
-233.2047252056781
 20
-255.9850733817805
 30
0.0
 11
-233.2047252056781
 21
-256.7703386879041
 31
0.0
  0
LINE
  5
A1
102
{ACAD_REACTORS
330
1B5
330
1B6
102
}
330
47
100
AcDbEntity
  8
0
  6
Continuous
 62
     2
100
AcDbLine
 10
-231.7255113241055
 20
-255.6796924294173
 30
0.0
 11
-230.532718621939
 21
-255.6796924294173
 31
0.0
  0
LINE
  5
A2
102
{ACAD_REACTORS
330
1B5
330
1B6
102
}
330
47
100
AcDbEntity
  8
0
  6
Continuous
 62
     2
100
AcDbLine
 10
-229.292214211685
 20
-253.9346584158112
 30
0.0
 11
-230.532718621939
 21
-252.6258829056061
 31
0.0
  0
LINE
  5
A3
102
{ACAD_REACTORS
330
1B5
330
1B6
102
}
330
47
100
AcDbEntity
  8
0
  6
Continuous
 62
     2
100
AcDbLine
 10
-228.0994215095184
 20
-252.6258829056061
 30
0.0
 11
-229.292214211685
 21
-252.6258829056061
 31
0.0
  0
LINE
  5
A4
102
{ACAD_REACTORS
330
1B5
330
1B6
102
}
330
47
100
AcDbEntity
  8
0
  6
Continuous
 62
     2
100
AcDbLine
 10
-228.0994215095184
 20
-255.6796924294173
 30
0.0
 11
-228.0994215095184
 21
-252.6258829056061
 31
0.0
  0
LINE
  5
A5
102
{ACAD_REACTORS
330
1B5
330
1B6
102
}
330
47
100
AcDbEntity
  8
0
  6
Continuous
 62
     2
100
AcDbLine
 10
-229.292214211685
 20
-255.6796924294173
 30
0.0
 11
-228.0994215095184
 21
-255.6796924294173
 31
0.0
  0
LINE
  5
A6
102
{ACAD_REACTORS
330
1B5
330
1B6
102
}
330
47
100
AcDbEntity
  8
0
  6
Continuous
 62
     2
100
AcDbLine
 10
-230.532718621939
 20
-254.3709169192126
 30
0.0
 11
-229.292214211685
 21
-255.6796924294173
 31
0.0
  0
LINE
  5
A7
102
{ACAD_REACTORS
330
1B7
330
1B8
102
}
330
47
100
AcDbEntity
  8
0
  6
Continuous
 62
     2
100
AcDbLine
 10
-234.5406530321047
 20
-257.2938488919856
 30
0.0
 11
-235.7811574423576
 21
-255.9850733817805
 31
0.0
  0
LINE
  5
A8
102
{ACAD_REACTORS
330
1B7
330
1B8
102
}
330
47
100
AcDbEntity
  8
0
  6
Continuous
 62
     2
100
AcDbLine
 10
-234.5406530321047
 20
-255.9850733817805
 30
0.0
 11
-234.5406530321047
 21
-257.2938488919856
 31
0.0
  0
LINE
  5
A9
102
{ACAD_REACTORS
330
1B7
330
1B8
102
}
330
47
100
AcDbEntity
  8
0
  6
Continuous
 62
     2
100
AcDbLine
 10
-233.3478603299383
 20
-255.9850733817805
 30
0.0
 11
-234.5406530321047
 21
-255.9850733817805
 31
0.0
  0
LINE
  5
AA
102
{ACAD_REACTORS
330
1B7
330
1B8
102
}
330
47
100
AcDbEntity
  8
0
  6
Continuous
 62
     2
100
AcDbLine
 10
-233.3478603299383
 20
-259.0388829055916
 30
0.0
 11
-233.3478603299383
 21
-255.9850733817805
 31
0.0
  0
LINE
  5
AB
102
{ACAD_REACTORS
330
1B7
330
1B8
102
}
330
47
100
AcDbEntity
  8
0
  6
Continuous
 62
     2
100
AcDbLine
 10
-235.7811574423576
 20
-257.730107395387
 30
0.0
 11
-234.5406530321047
 21
-259.0388829055916
 31
0.0
  0
LINE
  5
AC
102
{ACAD_REACTORS
330
1B7
330
1B8
102
}
330
47
100
AcDbEntity
  8
0
  6
Continuous
 62
     2
100
AcDbLine
 10
-235.7811574423576
 20
-259.0388829055916
 30
0.0
 11
-235.7811574423576
 21
-257.730107395387
 31
0.0
  0
LINE
  5
AD
102
{ACAD_REACTORS
330
1A7
330
1A8
102
}
330
47
100
AcDbEntity
  8
0
  6
Continuous
 62
     2
100
AcDbLine
 10
-233.2999976909661
 20
-253.323896511049
 30
0.0
 11
-231.9640698645384
 21
-253.323896511049
 31
0.0
  0
LINE
  5
AE
102
{ACAD_REACTORS
330
1A7
330
1A8
102
}
330
47
100
AcDbEntity
  8
0
  6
Continuous
 62
     2
100
AcDbLine
 10
-233.2999976909661
 20
-254.9816788239748
 30
0.0
 11
-233.2999976909661
 21
-254.5017944702331
 31
0.0
  0
LINE
  5
AF
102
{ACAD_REACTORS
330
1A7
330
1A8
102
}
330
47
100
AcDbEntity
  8
0
  6
Continuous
 62
     2
100
AcDbLine
 10
-231.9640698645384
 20
-254.9816788239748
 30
0.0
 11
-233.2999976909661
 21
-254.9816788239748
 31
0.0
  0
LINE
  5
B0
102
{ACAD_REACTORS
330
1A7
330
1A8
102
}
330
47
100
AcDbEntity
  8
0
  6
Continuous
 62
     2
100
AcDbLine
 10
-231.9640698645384
 20
-255.6796924294173
 30
0.0
 11
-231.9640698645384
 21
-254.9816788239748
 31
0.0
  0
LINE
  5
B1
102
{ACAD_REACTORS
330
1A7
330
1A8
102
}
330
47
100
AcDbEntity
  8
0
  6
Continuous
 62
     2
100
AcDbLine
 10
-235.1143895883194
 20
-255.6796924294173
 30
0.0
 11
-231.9640698645384
 21
-255.6796924294173
 31
0.0
  0
LINE
  5
B2
102
{ACAD_REACTORS
330
1A7
330
1A8
102
}
330
47
100
AcDbEntity
  8
0
  6
Continuous
 62
     2
100
AcDbLine
 10
-235.1143895883194
 20
-252.6258829056061
 30
0.0
 11
-231.9640698645384
 21
-252.6258829056061
 31
0.0
  0
LINE
  5
B3
102
{ACAD_REACTORS
330
1A7
330
1A8
102
}
330
47
100
AcDbEntity
  8
0
  6
Continuous
 62
     2
100
AcDbLine
 10
-231.9640698645384
 20
-253.323896511049
 30
0.0
 11
-231.9640698645384
 21
-252.6258829056061
 31
0.0
  0
LINE
  5
B4
102
{ACAD_REACTORS
330
1B9
330
1BA
102
}
330
47
100
AcDbEntity
  8
0
  6
Continuous
 62
     2
100
AcDbLine
 10
-237.9757450834594
 20
-253.6947162389407
 30
0.0
 11
-237.9757450834594
 21
-252.6258829056061
 31
0.0
  0
LINE
  5
B5
102
{ACAD_REACTORS
330
1B9
330
1BA
102
}
330
47
100
AcDbEntity
  8
0
  6
Continuous
 62
     2
100
AcDbLine
 10
-237.9757450834594
 20
-252.6258829056061
 30
0.0
 11
-236.782952381293
 21
-252.6258829056061
 31
0.0
  0
LINE
  5
B6
102
{ACAD_REACTORS
330
1B9
330
1BA
102
}
330
47
100
AcDbEntity
  8
0
  6
Continuous
 62
     2
100
AcDbLine
 10
-237.9757450834594
 20
-254.5454203205734
 30
0.0
 11
-239.0254026613669
 21
-254.5454203205734
 31
0.0
  0
LINE
  5
B7
102
{ACAD_REACTORS
330
1B9
330
1BA
102
}
330
47
100
AcDbEntity
  8
0
  6
Continuous
 62
     2
100
AcDbLine
 10
-239.0254026613669
 20
-254.5454203205734
 30
0.0
 11
-239.0254026613669
 21
-255.6796924294173
 31
0.0
  0
LINE
  5
B8
102
{ACAD_REACTORS
330
1B9
330
1BA
102
}
330
47
100
AcDbEntity
  8
0
  6
Continuous
 62
     2
100
AcDbLine
 10
-240.2181953635335
 20
-252.6258829056061
 30
0.0
 11
-240.2181953635335
 21
-255.6796924294173
 31
0.0
  0
LINE
  5
B9
102
{ACAD_REACTORS
330
1AB
330
1AC
102
}
330
47
100
AcDbEntity
  8
0
  6
Continuous
 62
     2
100
AcDbLine
 10
-242.1743753950871
 20
-253.9947164003884
 30
0.0
 11
-242.1743753950871
 21
-253.2889887510462
 31
0.0
  0
LINE
  5
BA
102
{ACAD_REACTORS
330
1AB
330
1AC
102
}
330
47
100
AcDbEntity
  8
0
  6
Continuous
 62
     2
100
AcDbLine
 10
-243.4148798053412
 20
-255.6796924294173
 30
0.0
 11
-242.1743753950871
 21
-255.6796924294173
 31
0.0
  0
LINE
  5
BB
102
{ACAD_REACTORS
330
1AB
330
1AC
102
}
330
47
100
AcDbEntity
  8
0
  6
Continuous
 62
     2
100
AcDbLine
 10
-242.1743753950871
 20
-255.6796924294173
 30
0.0
 11
-242.1743753950871
 21
-254.7366141882735
 31
0.0
  0
LINE
  5
BC
102
{ACAD_REACTORS
330
1A5
330
1A6
102
}
330
47
100
AcDbEntity
  8
0
  6
Continuous
 62
     2
100
AcDbLine
 10
-247.7198256545526
 20
-258.3263273500347
 30
0.0
 11
-249.1956589155622
 21
-258.3263273500347
 31
0.0
  0
LINE
  5
BD
102
{ACAD_REACTORS
330
1A5
330
1A6
102
}
330
47
100
AcDbEntity
  8
0
  6
Continuous
 62
     2
100
AcDbLine
 10
-250.2137982076915
 20
-253.0501275210081
 30
0.0
 11
-250.2137982076915
 21
-258.6146382902083
 31
0.0
  0
LINE
  5
BE
102
{ACAD_REACTORS
330
1A5
330
1A6
102
}
330
47
100
AcDbEntity
  8
0
  6
Continuous
 62
     2
100
AcDbLine
 10
-249.7895535923087
 20
-252.6258829056243
 30
0.0
 11
-244.3162415015919
 21
-252.6258829056243
 31
0.0
  0
LINE
  5
BF
102
{ACAD_REACTORS
330
1A5
330
1A6
102
}
330
47
100
AcDbEntity
  8
0
  6
Continuous
 62
     2
100
AcDbLine
 10
-243.891996886208
 20
-253.0501275210081
 30
0.0
 11
-243.891996886208
 21
-258.6146382902083
 31
0.0
  0
LINE
  5
C0
102
{ACAD_REACTORS
330
1A5
330
1A6
102
}
330
47
100
AcDbEntity
  8
0
  6
Continuous
 62
     2
100
AcDbLine
 10
-244.3162415015919
 20
-259.0388829055916
 30
0.0
 11
-249.7895535923087
 21
-259.0388829055916
 31
0.0
  0
LINE
  5
C1
102
{ACAD_REACTORS
330
1A5
330
1A6
102
}
330
47
100
AcDbEntity
  8
0
  6
Continuous
 62
     2
100
AcDbLine
 10
-247.404108731476
 20
-258.010610426958
 30
0.0
 11
-247.404108731476
 21
-256.4798394954264
 31
0.0
  0
LINE
  5
C2
102
{ACAD_REACTORS
330
1A5
330
1A6
102
}
330
47
100
AcDbEntity
  8
0
  6
Continuous
 62
     2
100
AcDbLine
 10
-247.404108731476
 20
-254.2581800033014
 30
0.0
 11
-247.404108731476
 21
-253.6541553842409
 31
0.0
  0
LINE
  5
C3
102
{ACAD_REACTORS
330
1A5
330
1A6
102
}
330
47
100
AcDbEntity
  8
0
  6
Continuous
 62
     2
100
AcDbLine
 10
-249.1956589155622
 20
-253.3384384611647
 30
0.0
 11
-247.7198256545526
 21
-253.3384384611647
 31
0.0
  0
LINE
  5
C4
102
{ACAD_REACTORS
330
1A5
330
1A6
102
}
330
47
100
AcDbEntity
  8
0
  6
Continuous
 62
     2
100
AcDbLine
 10
-249.5113758386379
 20
-253.6541553842409
 30
0.0
 11
-249.5113758386379
 21
-258.010610426958
 31
0.0
  0
LINE
  5
C5
102
{ACAD_REACTORS
330
1AB
330
1AC
102
}
330
47
100
AcDbEntity
  8
0
  6
Continuous
 62
     2
100
AcDbLine
 10
-242.1743753950871
 20
-254.7366141882735
 30
0.0
 11
-241.4156078073068
 21
-254.7366141882735
 31
0.0
  0
LINE
  5
C6
102
{ACAD_REACTORS
330
1AB
330
1AC
102
}
330
47
100
AcDbEntity
  8
0
  6
Continuous
 62
     2
100
AcDbLine
 10
-243.4148798053412
 20
-252.6258829056061
 30
0.0
 11
-241.4156078073068
 21
-252.6258829056061
 31
0.0
  0
LINE
  5
C7
102
{ACAD_REACTORS
330
1AB
330
1AC
102
}
330
47
100
AcDbEntity
  8
0
  6
Continuous
 62
     2
100
AcDbLine
 10
-243.4148798053412
 20
-252.6258829056061
 30
0.0
 11
-243.4148798053412
 21
-255.6796924294173
 31
0.0
  0
LINE
  5
C8
102
{ACAD_REACTORS
330
1AB
330
1AC
102
}
330
47
100
AcDbEntity
  8
0
  6
Continuous
 62
     2
100
AcDbLine
 10
-242.1743753950871
 20
-253.9947164003884
 30
0.0
 11
-241.8570803335452
 21
-253.9947164003884
 31
0.0
  0
LINE
  5
C9
102
{ACAD_REACTORS
330
1AB
330
1AC
102
}
330
47
100
AcDbEntity
  8
0
  6
Continuous
 62
     2
100
AcDbLine
 10
-242.1743753950871
 20
-253.2889887510462
 30
0.0
 11
-241.8570803335452
 21
-253.2889887510462
 31
0.0
  0
LINE
  5
CA
102
{ACAD_REACTORS
330
1B9
330
1BA
102
}
330
47
100
AcDbEntity
  8
0
  6
Continuous
 62
     2
100
AcDbLine
 10
-239.0254026613669
 20
-253.6947162389407
 30
0.0
 11
-237.9757450834594
 21
-253.6947162389407
 31
0.0
  0
LINE
  5
CB
102
{ACAD_REACTORS
330
1B9
330
1BA
102
}
330
47
100
AcDbEntity
  8
0
  6
Continuous
 62
     2
100
AcDbLine
 10
-239.0254026613669
 20
-252.6258829056061
 30
0.0
 11
-239.0254026613669
 21
-253.6947162389407
 31
0.0
  0
LINE
  5
CC
102
{ACAD_REACTORS
330
1B9
330
1BA
102
}
330
47
100
AcDbEntity
  8
0
  6
Continuous
 62
     2
100
AcDbLine
 10
-240.2181953635335
 20
-252.6258829056061
 30
0.0
 11
-239.0254026613669
 21
-252.6258829056061
 31
0.0
  0
LINE
  5
CD
102
{ACAD_REACTORS
330
1B9
330
1BA
102
}
330
47
100
AcDbEntity
  8
0
  6
Continuous
 62
     2
100
AcDbLine
 10
-239.0254026613669
 20
-255.6796924294173
 30
0.0
 11
-240.2181953635335
 21
-255.6796924294173
 31
0.0
  0
LINE
  5
CE
102
{ACAD_REACTORS
330
1B9
330
1BA
102
}
330
47
100
AcDbEntity
  8
0
  6
Continuous
 62
     2
100
AcDbLine
 10
-237.9757450834594
 20
-255.6796924294173
 30
0.0
 11
-237.9757450834594
 21
-254.5454203205734
 31
0.0
  0
LINE
  5
CF
102
{ACAD_REACTORS
330
1B9
330
1BA
102
}
330
47
100
AcDbEntity
  8
0
  6
Continuous
 62
     2
100
AcDbLine
 10
-236.782952381293
 20
-255.6796924294173
 30
0.0
 11
-237.9757450834594
 21
-255.6796924294173
 31
0.0
  0
LINE
  5
D0
102
{ACAD_REACTORS
330
1B9
330
1BA
102
}
330
47
100
AcDbEntity
  8
0
  6
Continuous
 62
     2
100
AcDbLine
 10
-236.782952381293
 20
-252.6258829056061
 30
0.0
 11
-236.782952381293
 21
-255.6796924294173
 31
0.0
  0
LINE
  5
D1
102
{ACAD_REACTORS
330
1A7
330
1A8
102
}
330
47
100
AcDbEntity
  8
0
  6
Continuous
 62
     2
100
AcDbLine
 10
-233.2999976909661
 20
-254.5017944702331
 30
0.0
 11
-231.9640698645384
 21
-254.5017944702331
 31
0.0
  0
LINE
  5
D2
102
{ACAD_REACTORS
330
1A7
330
1A8
102
}
330
47
100
AcDbEntity
  8
0
  6
Continuous
 62
     2
100
AcDbLine
 10
-231.9640698645384
 20
-254.5017944702331
 30
0.0
 11
-231.9640698645384
 21
-253.8037808647908
 31
0.0
  0
LINE
  5
D3
102
{ACAD_REACTORS
330
1A7
330
1A8
102
}
330
47
100
AcDbEntity
  8
0
  6
Continuous
 62
     2
100
AcDbLine
 10
-231.9640698645384
 20
-253.8037808647908
 30
0.0
 11
-233.2999976909661
 21
-253.8037808647908
 31
0.0
  0
LINE
  5
D4
102
{ACAD_REACTORS
330
1A7
330
1A8
102
}
330
47
100
AcDbEntity
  8
0
  6
Continuous
 62
     2
100
AcDbLine
 10
-233.2999976909661
 20
-253.8037808647908
 30
0.0
 11
-233.2999976909661
 21
-253.323896511049
 31
0.0
  0
LINE
  5
D5
102
{ACAD_REACTORS
330
1B7
330
1B8
102
}
330
47
100
AcDbEntity
  8
0
  6
Continuous
 62
     2
100
AcDbLine
 10
-236.9739501445252
 20
-259.0388829055916
 30
0.0
 11
-235.7811574423576
 21
-259.0388829055916
 31
0.0
  0
LINE
  5
D6
102
{ACAD_REACTORS
330
1B7
330
1B8
102
}
330
47
100
AcDbEntity
  8
0
  6
Continuous
 62
     2
100
AcDbLine
 10
-234.5406530321047
 20
-259.0388829055916
 30
0.0
 11
-233.3478603299383
 21
-259.0388829055916
 31
0.0
  0
LINE
  5
D7
102
{ACAD_REACTORS
330
1B7
330
1B8
102
}
330
47
100
AcDbEntity
  8
0
  6
Continuous
 62
     2
100
AcDbLine
 10
-235.7811574423576
 20
-255.9850733817805
 30
0.0
 11
-236.9739501445252
 21
-255.9850733817805
 31
0.0
  0
LINE
  5
D8
102
{ACAD_REACTORS
330
1B7
330
1B8
102
}
330
47
100
AcDbEntity
  8
0
  6
Continuous
 62
     2
100
AcDbLine
 10
-236.9739501445252
 20
-255.9850733817805
 30
0.0
 11
-236.9739501445252
 21
-259.0388829055916
 31
0.0
  0
LINE
  5
D9
102
{ACAD_REACTORS
330
1B5
330
1B6
102
}
330
47
100
AcDbEntity
  8
0
  6
Continuous
 62
     2
100
AcDbLine
 10
-229.292214211685
 20
-252.6258829056061
 30
0.0
 11
-229.292214211685
 21
-253.9346584158112
 31
0.0
  0
LINE
  5
DA
102
{ACAD_REACTORS
330
1B5
330
1B6
102
}
330
47
100
AcDbEntity
  8
0
  6
Continuous
 62
     2
100
AcDbLine
 10
-230.532718621939
 20
-252.6258829056061
 30
0.0
 11
-231.7255113241055
 21
-252.6258829056061
 31
0.0
  0
LINE
  5
DB
102
{ACAD_REACTORS
330
1B5
330
1B6
102
}
330
47
100
AcDbEntity
  8
0
  6
Continuous
 62
     2
100
AcDbLine
 10
-231.7255113241055
 20
-252.6258829056061
 30
0.0
 11
-231.7255113241055
 21
-255.6796924294173
 31
0.0
  0
LINE
  5
DC
102
{ACAD_REACTORS
330
1B5
330
1B6
102
}
330
47
100
AcDbEntity
  8
0
  6
Continuous
 62
     2
100
AcDbLine
 10
-230.532718621939
 20
-255.6796924294173
 30
0.0
 11
-230.532718621939
 21
-254.3709169192126
 31
0.0
  0
LINE
  5
DD
102
{ACAD_REACTORS
330
1B3
330
1B4
102
}
330
47
100
AcDbEntity
  8
0
  6
Continuous
 62
     2
100
AcDbLine
 10
-231.200833466037
 20
-259.0388829055916
 30
0.0
 11
-231.200833466037
 21
-256.7703386879041
 31
0.0
  0
LINE
  5
DE
102
{ACAD_REACTORS
330
1B3
330
1B4
102
}
330
47
100
AcDbEntity
  8
0
  6
Continuous
 62
     2
100
AcDbLine
 10
-231.200833466037
 20
-256.7703386879041
 30
0.0
 11
-230.3897344285645
 21
-256.7703386879041
 31
0.0
  0
LINE
  5
DF
102
{ACAD_REACTORS
330
1B3
330
1B4
102
}
330
47
100
AcDbEntity
  8
0
  6
Continuous
 62
     2
100
AcDbLine
 10
-230.3897344285645
 20
-256.7703386879041
 30
0.0
 11
-230.3897344285645
 21
-255.9850733817805
 31
0.0
  0
LINE
  5
E0
102
{ACAD_REACTORS
330
1B3
330
1B4
102
}
330
47
100
AcDbEntity
  8
0
  6
Continuous
 62
     2
100
AcDbLine
 10
-230.3897344285645
 20
-255.9850733817805
 30
0.0
 11
-233.2047252056781
 21
-255.9850733817805
 31
0.0
  0
LINE
  5
E1
102
{ACAD_REACTORS
330
1B3
330
1B4
102
}
330
47
100
AcDbEntity
  8
0
  6
Continuous
 62
     2
100
AcDbLine
 10
-233.2047252056781
 20
-256.7703386879041
 30
0.0
 11
-232.3936261682035
 21
-256.7703386879041
 31
0.0
  0
LINE
  5
E2
102
{ACAD_REACTORS
330
1B1
330
1B2
102
}
330
47
100
AcDbEntity
  8
0
  6
Continuous
 62
     2
100
AcDbLine
 10
-229.5952286027671
 20
-258.4979223613736
 30
0.0
 11
-228.4627870260933
 21
-258.4979223613736
 31
0.0
  0
LINE
  5
E3
102
{ACAD_REACTORS
330
1B1
330
1B2
102
}
330
47
100
AcDbEntity
  8
0
  6
Continuous
 62
     2
100
AcDbLine
 10
-227.0108025623636
 20
-259.0388829055916
 30
0.0
 11
-228.2513069726175
 21
-259.0388829055916
 31
0.0
  0
LINE
  5
E4
102
{ACAD_REACTORS
330
1B1
330
1B2
102
}
330
47
100
AcDbEntity
  8
0
  6
Continuous
 62
     2
100
AcDbLine
 10
-229.6492600195566
 20
-255.9850733817805
 30
0.0
 11
-231.0472130664959
 21
-259.0388829055916
 31
0.0
  0
LINE
  5
E5
102
{ACAD_REACTORS
330
1B1
330
1B2
102
}
330
47
100
AcDbEntity
  8
0
  6
Continuous
 62
     2
100
AcDbLine
 10
-229.8067086562429
 20
-259.0388829055916
 30
0.0
 11
-229.5952286027671
 21
-258.4979223613736
 31
0.0
  0
LINE
  5
E6
102
{ACAD_REACTORS
330
1B1
330
1B2
102
}
330
47
100
AcDbEntity
  8
0
  6
Continuous
 62
     2
100
AcDbLine
 10
-229.3291730516221
 20
-257.8173590960671
 30
0.0
 11
-229.0290078144297
 21
-257.0495441300803
 31
0.0
  0
LINE
  5
E7
102
{ACAD_REACTORS
330
1AF
330
1B0
102
}
330
47
100
AcDbEntity
  8
0
  6
Continuous
 62
     2
100
AcDbLine
 10
-227.8608629690845
 20
-255.6796924294173
 30
0.0
 11
-227.8608629690845
 21
-252.6258829056061
 31
0.0
  0
LINE
  5
E8
102
{ACAD_REACTORS
330
1AF
330
1B0
102
}
330
47
100
AcDbEntity
  8
0
  6
Continuous
 62
     2
100
AcDbLine
 10
-226.6203585588316
 20
-252.6258829056061
 30
0.0
 11
-226.6203585588316
 21
-255.6796924294173
 31
0.0
  0
LINE
  5
E9
102
{ACAD_REACTORS
330
1AF
330
1B0
102
}
330
47
100
AcDbEntity
  8
0
  6
Continuous
 62
     2
100
AcDbLine
 10
-227.8608629690845
 20
-252.6258829056061
 30
0.0
 11
-226.6203585588316
 21
-252.6258829056061
 31
0.0
  0
LINE
  5
EA
102
{ACAD_REACTORS
330
1AD
330
1AE
102
}
330
47
100
AcDbEntity
  8
0
  6
Continuous
 62
     2
100
AcDbLine
 10
-224.4017641328008
 20
-254.8919606441235
 30
0.0
 11
-223.7051731947353
 21
-255.6796924294173
 31
0.0
  0
LINE
  5
EB
102
{ACAD_REACTORS
330
1AD
330
1AE
102
}
330
47
100
AcDbEntity
  8
0
  6
Continuous
 62
     2
100
AcDbLine
 10
-223.7051731947353
 20
-255.6796924294173
 30
0.0
 11
-222.302448976987
 21
-255.6796924294173
 31
0.0
  0
LINE
  5
EC
102
{ACAD_REACTORS
330
1AD
330
1AE
102
}
330
47
100
AcDbEntity
  8
0
  6
Continuous
 62
     2
100
AcDbLine
 10
-223.7004020239273
 20
-254.0988334356423
 30
0.0
 11
-222.302448976987
 21
-255.6796924294173
 31
0.0
  0
LINE
  5
ED
102
{ACAD_REACTORS
330
1AD
330
1AE
102
}
330
47
100
AcDbEntity
  8
0
  6
Continuous
 62
     2
100
AcDbLine
 10
-223.7004020239273
 20
-254.0988334356423
 30
0.0
 11
-222.3978723931608
 21
-252.6258829056061
 31
0.0
  0
LINE
  5
EE
102
{ACAD_REACTORS
330
1AD
330
1AE
102
}
330
47
100
AcDbEntity
  8
0
  6
Continuous
 62
     2
100
AcDbLine
 10
-224.4017641328008
 20
-253.3057062271616
 30
0.0
 11
-223.800596610908
 21
-252.6258829056061
 31
0.0
  0
LINE
  5
EF
102
{ACAD_REACTORS
330
1AD
330
1AE
102
}
330
47
100
AcDbEntity
  8
0
  6
Continuous
 62
     2
100
AcDbLine
 10
-225.0029316546926
 20
-252.6258829056061
 30
0.0
 11
-224.4017641328008
 21
-253.3057062271616
 31
0.0
  0
LINE
  5
F0
102
{ACAD_REACTORS
330
1AD
330
1AE
102
}
330
47
100
AcDbEntity
  8
0
  6
Continuous
 62
     2
100
AcDbLine
 10
-225.0029316546926
 20
-252.6258829056061
 30
0.0
 11
-226.4056558724419
 21
-252.6258829056061
 31
0.0
  0
LINE
  5
F1
102
{ACAD_REACTORS
330
1A3
330
1A4
102
}
330
47
100
AcDbEntity
  8
0
  6
Continuous
 62
     2
100
AcDbLine
 10
-224.3063407166281
 20
-259.0388829055916
 30
0.0
 11
-223.1135480144604
 21
-259.0388829055916
 31
0.0
  0
LINE
  5
F2
102
{ACAD_REACTORS
330
1A3
330
1A4
102
}
330
47
100
AcDbEntity
  8
0
  6
Continuous
 62
     2
100
AcDbLine
 10
-223.1135480144604
 20
-259.0388829055916
 30
0.0
 11
-223.1135480144604
 21
-256.7703386879041
 31
0.0
  0
LINE
  5
F3
102
{ACAD_REACTORS
330
1A3
330
1A4
102
}
330
47
100
AcDbEntity
  8
0
  6
Continuous
 62
     2
100
AcDbLine
 10
-223.1135480144604
 20
-256.7703386879041
 30
0.0
 11
-222.302448976987
 21
-256.7703386879041
 31
0.0
  0
LINE
  5
F4
102
{ACAD_REACTORS
330
1A3
330
1A4
102
}
330
47
100
AcDbEntity
  8
0
  6
Continuous
 62
     2
100
AcDbLine
 10
-222.302448976987
 20
-256.7703386879041
 30
0.0
 11
-222.302448976987
 21
-255.9850733817805
 31
0.0
  0
LINE
  5
F5
102
{ACAD_REACTORS
330
1A3
330
1A4
102
}
330
47
100
AcDbEntity
  8
0
  6
Continuous
 62
     2
100
AcDbLine
 10
-225.6873944956157
 20
-255.985073381781
 30
0.0
 11
-222.302448976987
 21
-255.9850733817805
 31
0.0
  0
LINE
  5
F6
102
{ACAD_REACTORS
330
1A3
330
1A4
102
}
330
47
100
AcDbEntity
  8
0
  6
Continuous
 62
     2
100
AcDbLine
 10
-224.3063407166281
 20
-256.7703386879041
 30
0.0
 11
-224.3063407166281
 21
-259.0388829055916
 31
0.0
  0
LINE
  5
F7
102
{ACAD_REACTORS
330
1A5
330
1A6
102
}
330
47
100
AcDbEntity
  8
0
  6
Continuous
 62
     2
100
AcDbLine
 10
-246.9358271521073
 20
-257.0600027560271
 30
0.0
 11
-246.9358271521073
 21
-256.4781513493319
 31
0.0
  0
LINE
  5
F8
102
{ACAD_REACTORS
330
1A5
330
1A6
102
}
330
47
100
AcDbEntity
  8
0
  6
Continuous
 62
     2
100
AcDbLine
 10
-246.9358271521073
 20
-254.2598681493957
 30
0.0
 11
-246.9358271521073
 21
-253.654332860889
 31
0.0
  0
LINE
  5
F9
330
47
100
AcDbEntity
  8
1
  6
Continuous
 62
     6
100
AcDbLine
 10
-268.4056485675041
 20
-266.3323829056079
 30
0.0
 11
-254.4504530942541
 21
-266.332382905608
 31
0.0
  0
LINE
  5
FA
330
47
100
AcDbEntity
  8
1
  6
Continuous
 62
     6
100
AcDbLine
 10
-318.4056485675043
 20
-266.3323829056079
 30
0.0
 11
-323.4504530942541
 21
-266.3323829056079
 31
0.0
  0
LINE
  5
FB
330
47
100
AcDbEntity
  8
1
  6
Continuous
 62
     6
100
AcDbLine
 10
-168.4056485675041
 20
-266.3323829056079
 30
0.0
 11
-124.9056485675041
 21
-266.3323829056079
 31
0.0
  0
LINE
  5
FC
330
47
100
AcDbEntity
  8
1
  6
Continuous
 62
     6
100
AcDbLine
 10
-218.4056485675041
 20
-266.3323829056079
 30
0.0
 11
-236.2504530942541
 21
-266.3323829056079
 31
0.0
  0
LINE
  5
FD
330
47
100
AcDbEntity
  8
1
  6
Continuous
 62
     2
100
AcDbLine
 10
-124.9056485675041
 20
-266.3323829056079
 30
0.0
 11
-119.9056485675051
 21
-266.3323829056079
 31
0.0
  0
LINE
  5
FE
330
47
100
AcDbEntity
  8
1
  6
Continuous
 62
     2
100
AcDbLine
 10
-124.9056485675041
 20
-266.3323829056079
 30
0.0
 11
-124.9056485675041
 21
-271.332382905608
 31
0.0
  0
LINE
  5
FF
330
47
100
AcDbEntity
  8
1
  6
Continuous
 62
     6
100
AcDbLine
 10
-254.4504530942541
 20
-249.3323829056079
 30
0.0
 11
-218.0504530942542
 21
-249.3323829056079
 31
0.0
  0
LINE
  5
100
330
47
100
AcDbEntity
  8
1
  6
Continuous
 62
     2
100
AcDbLine
 10
-119.9056485675051
 20
-271.332382905608
 30
0.0
 11
-119.9056485675051
 21
-266.3323829056079
 31
0.0
  0
LINE
  5
101
330
47
100
AcDbEntity
  8
1
  6
Continuous
 62
     2
100
AcDbLine
 10
-119.9056485675051
 20
-271.332382905608
 30
0.0
 11
-124.9056485675041
 21
-271.332382905608
 31
0.0
  0
LINE
  5
102
330
47
100
AcDbEntity
  8
1
  6
Continuous
 62
     2
100
AcDbLine
 10
-124.9056485675041
 20
-271.332382905608
 30
0.0
 11
-168.4056485675041
 21
-271.332382905608
 31
0.0
  0
LINE
  5
103
330
47
100
AcDbEntity
  8
1
  6
Continuous
 62
     6
100
AcDbLine
 10
-124.9056485675024
 20
-249.3323829056079
 30
0.0
 11
-124.9056485675032
 21
-216.3323829056077
 31
0.0
  0
LINE
  5
104
330
47
100
AcDbEntity
  8
1
  6
Continuous
 62
     2
100
AcDbLine
 10
-119.9056485675051
 20
-61.33238290560786
 30
0.0
 11
-268.4056485675041
 21
-61.33238290560786
 31
0.0
  0
LINE
  5
105
330
47
100
AcDbEntity
  8
1
  6
Continuous
 62
     6
100
AcDbLine
 10
-124.9056485675051
 20
-81.33238290560786
 30
0.0
 11
-411.9056485675032
 21
-81.33238290560786
 31
0.0
  0
LINE
  5
106
330
47
100
AcDbEntity
  8
1
  6
Continuous
 62
     2
100
AcDbLine
 10
-124.9056485675032
 20
-216.3323829056077
 30
0.0
 11
-119.9056485675051
 21
-216.3323829056077
 31
0.0
  0
LINE
  5
107
330
47
100
AcDbEntity
  8
1
  6
Continuous
 62
     6
100
AcDbLine
 10
-124.9056485675032
 20
-216.3323829056077
 30
0.0
 11
-124.9056485675037
 21
-166.3323829056079
 31
0.0
  0
LINE
  5
108
330
47
100
AcDbEntity
  8
1
  6
Continuous
 62
     2
100
AcDbLine
 10
-119.9056485675051
 20
-216.3323829056077
 30
0.0
 11
-119.9056485675051
 21
-166.3323829056079
 31
0.0
  0
LINE
  5
109
330
47
100
AcDbEntity
  8
1
  6
Continuous
 62
     2
100
AcDbLine
 10
-124.9056485675037
 20
-166.3323829056079
 30
0.0
 11
-119.9056485675051
 21
-166.3323829056079
 31
0.0
  0
LINE
  5
10A
330
47
100
AcDbEntity
  8
1
  6
Continuous
 62
     6
100
AcDbLine
 10
-124.9056485675037
 20
-166.3323829056079
 30
0.0
 11
-124.9056485675049
 21
-116.3323829056079
 31
0.0
  0
LINE
  5
10B
330
47
100
AcDbEntity
  8
1
  6
Continuous
 62
     2
100
AcDbLine
 10
-119.9056485675051
 20
-166.3323829056079
 30
0.0
 11
-119.9056485675051
 21
-116.3323829056079
 31
0.0
  0
LINE
  5
10C
330
47
100
AcDbEntity
  8
1
  6
Continuous
 62
     2
100
AcDbLine
 10
-124.9056485675049
 20
-116.3323829056079
 30
0.0
 11
-119.9056485675051
 21
-116.3323829056079
 31
0.0
  0
LINE
  5
10D
330
47
100
AcDbEntity
  8
1
  6
Continuous
 62
     6
100
AcDbLine
 10
-124.9056485675049
 20
-116.3323829056079
 30
0.0
 11
-124.9056485675051
 21
-81.33238290560786
 31
0.0
  0
LINE
  5
10E
330
47
100
AcDbEntity
  8
1
  6
Continuous
 62
     2
100
AcDbLine
 10
-119.9056485675051
 20
-116.3323829056079
 30
0.0
 11
-119.9056485675051
 21
-61.33238290560786
 31
0.0
  0
LINE
  5
10F
330
47
100
AcDbEntity
  8
1
  6
Continuous
 62
     2
100
AcDbLine
 10
-119.9056485675051
 20
-266.3323829056079
 30
0.0
 11
-119.9056485675051
 21
-216.3323829056077
 31
0.0
  0
LINE
  5
110
330
47
100
AcDbEntity
  8
1
  6
Continuous
 62
     2
100
AcDbLine
 10
-268.4056485675041
 20
-61.33238290560786
 30
0.0
 11
-416.9056485675032
 21
-61.33238290560786
 31
0.0
  0
LINE
  5
111
330
47
100
AcDbEntity
  8
1
  6
Continuous
 62
     2
100
AcDbLine
 10
-268.4056485675041
 20
-61.33238290560786
 30
0.0
 11
-268.4056485675041
 21
-70.54107475030918
 31
0.0
  0
LINE
  5
112
330
47
100
AcDbEntity
  8
1
  6
Continuous
 62
     2
100
AcDbLine
 10
-416.9056485675032
 20
-271.332382905608
 30
0.0
 11
-411.9056485675022
 21
-271.332382905608
 31
0.0
  0
LINE
  5
113
330
47
100
AcDbEntity
  8
1
  6
Continuous
 62
     2
100
AcDbLine
 10
-416.9056485675032
 20
-61.33238290560786
 30
0.0
 11
-416.9056485675032
 21
-116.3323829056079
 31
0.0
  0
LINE
  5
114
330
47
100
AcDbEntity
  8
1
  6
Continuous
 62
     6
100
AcDbLine
 10
-411.9056485675032
 20
-81.33238290560786
 30
0.0
 11
-411.9056485675031
 21
-116.3323829056079
 31
0.0
  0
LINE
  5
115
330
47
100
AcDbEntity
  8
1
  6
Continuous
 62
     2
100
AcDbLine
 10
-416.9056485675032
 20
-116.3323829056079
 30
0.0
 11
-411.9056485675031
 21
-116.3323829056079
 31
0.0
  0
LINE
  5
116
330
47
100
AcDbEntity
  8
1
  6
Continuous
 62
     2
100
AcDbLine
 10
-416.9056485675032
 20
-116.3323829056079
 30
0.0
 11
-416.9056485675032
 21
-166.3323829056079
 31
0.0
  0
LINE
  5
117
330
47
100
AcDbEntity
  8
1
  6
Continuous
 62
     6
100
AcDbLine
 10
-411.9056485675031
 20
-116.3323829056079
 30
0.0
 11
-411.9056485675026
 21
-166.3323829056079
 31
0.0
  0
LINE
  5
118
330
47
100
AcDbEntity
  8
1
  6
Continuous
 62
     2
100
AcDbLine
 10
-416.9056485675032
 20
-166.3323829056079
 30
0.0
 11
-411.9056485675026
 21
-166.3323829056079
 31
0.0
  0
LINE
  5
119
330
47
100
AcDbEntity
  8
1
  6
Continuous
 62
     2
100
AcDbLine
 10
-416.9056485675032
 20
-166.3323829056079
 30
0.0
 11
-416.9056485675032
 21
-216.3323829056077
 31
0.0
  0
LINE
  5
11A
330
47
100
AcDbEntity
  8
1
  6
Continuous
 62
     6
100
AcDbLine
 10
-411.9056485675026
 20
-166.3323829056079
 30
0.0
 11
-411.9056485675024
 21
-216.3323829056077
 31
0.0
  0
LINE
  5
11B
330
47
100
AcDbEntity
  8
1
  6
Continuous
 62
     2
100
AcDbLine
 10
-416.9056485675032
 20
-216.3323829056077
 30
0.0
 11
-411.9056485675024
 21
-216.3323829056077
 31
0.0
  0
LINE
  5
11C
330
47
100
AcDbEntity
  8
1
  6
Continuous
 62
     2
100
AcDbLine
 10
-416.9056485675032
 20
-216.3323829056077
 30
0.0
 11
-416.9056485675032
 21
-266.3323829056079
 31
0.0
  0
LINE
  5
11D
330
47
100
AcDbEntity
  8
1
  6
Continuous
 62
     6
100
AcDbLine
 10
-411.9056485675024
 20
-216.3323829056077
 30
0.0
 11
-411.9056485675022
 21
-266.3323829056079
 31
0.0
  0
LINE
  5
11E
330
47
100
AcDbEntity
  8
1
  6
Continuous
 62
     2
100
AcDbLine
 10
-368.4056485675041
 20
-271.332382905608
 30
0.0
 11
-368.4056485675041
 21
-266.3323829056079
 31
0.0
  0
LINE
  5
11F
330
47
100
AcDbEntity
  8
1
  6
Continuous
 62
     2
100
AcDbLine
 10
-368.4056485675041
 20
-271.332382905608
 30
0.0
 11
-318.4056485675043
 21
-271.332382905608
 31
0.0
  0
LINE
  5
120
330
47
100
AcDbEntity
  8
1
  6
Continuous
 62
     2
100
AcDbLine
 10
-318.4056485675043
 20
-271.332382905608
 30
0.0
 11
-318.4056485675043
 21
-266.3323829056079
 31
0.0
  0
LINE
  5
121
330
47
100
AcDbEntity
  8
1
  6
Continuous
 62
     2
100
AcDbLine
 10
-318.4056485675043
 20
-271.332382905608
 30
0.0
 11
-268.4056485675041
 21
-271.332382905608
 31
0.0
  0
LINE
  5
122
330
47
100
AcDbEntity
  8
1
  6
Continuous
 62
     2
100
AcDbLine
 10
-268.4056485675041
 20
-271.332382905608
 30
0.0
 11
-268.4056485675041
 21
-266.3323829056079
 31
0.0
  0
LINE
  5
123
330
47
100
AcDbEntity
  8
1
  6
Continuous
 62
     2
100
AcDbLine
 10
-268.4056485675041
 20
-271.332382905608
 30
0.0
 11
-218.4056485675041
 21
-271.332382905608
 31
0.0
  0
LINE
  5
124
330
47
100
AcDbEntity
  8
1
  6
Continuous
 62
     2
100
AcDbLine
 10
-218.4056485675041
 20
-271.332382905608
 30
0.0
 11
-218.4056485675041
 21
-266.3323829056079
 31
0.0
  0
LINE
  5
125
330
47
100
AcDbEntity
  8
1
  6
Continuous
 62
     2
100
AcDbLine
 10
-168.4056485675041
 20
-271.332382905608
 30
0.0
 11
-168.4056485675041
 21
-266.3323829056079
 31
0.0
  0
LINE
  5
126
330
47
100
AcDbEntity
  8
1
  6
Continuous
 62
     2
100
AcDbLine
 10
-168.4056485675041
 20
-271.332382905608
 30
0.0
 11
-218.4056485675041
 21
-271.332382905608
 31
0.0
  0
LINE
  5
127
330
47
100
AcDbEntity
  8
1
  6
Continuous
 62
     2
100
AcDbLine
 10
-411.9056485675022
 20
-266.3323829056079
 30
0.0
 11
-411.9056485675022
 21
-271.332382905608
 31
0.0
  0
LINE
  5
128
330
47
100
AcDbEntity
  8
1
  6
Continuous
 62
     2
100
AcDbLine
 10
-411.9056485675022
 20
-271.332382905608
 30
0.0
 11
-368.4056485675041
 21
-271.332382905608
 31
0.0
  0
LINE
  5
129
330
47
100
AcDbEntity
  8
1
  6
Continuous
 62
     2
100
AcDbLine
 10
-411.9056485675022
 20
-266.3323829056079
 30
0.0
 11
-416.9056485675032
 21
-266.3323829056079
 31
0.0
  0
LINE
  5
12A
330
47
100
AcDbEntity
  8
1
  6
Continuous
 62
     2
100
AcDbLine
 10
-416.9056485675032
 20
-266.3323829056079
 30
0.0
 11
-416.9056485675032
 21
-271.332382905608
 31
0.0
  0
LINE
  5
12B
330
47
100
AcDbEntity
  8
1
  6
Continuous
 62
     6
100
AcDbLine
 10
-124.9056485675041
 20
-266.3323829056079
 30
0.0
 11
-124.9056485675028
 21
-257.8323829056079
 31
0.0
  0
LINE
  5
12C
330
47
100
AcDbEntity
  8
1
  6
Continuous
 62
     6
100
AcDbLine
 10
-218.0504530942542
 20
-266.332382905608
 30
0.0
 11
-168.4056485675041
 21
-266.3323829056079
 31
0.0
  0
LINE
  5
12D
330
47
100
AcDbEntity
  8
1
  6
Continuous
 62
     6
100
AcDbLine
 10
-370.7056485675043
 20
-266.332382905608
 30
0.0
 11
-368.4056485675041
 21
-266.3323829056079
 31
0.0
  0
LINE
  5
12E
330
47
100
AcDbEntity
  8
1
  6
Continuous
 62
     6
100
AcDbLine
 10
-268.4056485675041
 20
-266.3323829056079
 30
0.0
 11
-318.4056485675043
 21
-266.3323829056079
 31
0.0
  0
LINE
  5
12F
330
47
100
AcDbEntity
  8
1
  6
Continuous
 62
     7
100
AcDbLine
 10
-254.4504530942541
 20
-249.3323829056079
 30
0.0
 11
-254.4504530942541
 21
-262.082382905608
 31
0.0
  0
LINE
  5
130
330
47
100
AcDbEntity
  8
1
  6
Continuous
 62
     7
100
AcDbLine
 10
-218.0504530942542
 20
-249.3323829056079
 30
0.0
 11
-218.0504530942542
 21
-262.0823829056079
 31
0.0
  0
LINE
  5
131
330
47
100
AcDbEntity
  8
1
  6
Continuous
 62
     6
100
AcDbLine
 10
-370.7056485675043
 20
-266.332382905608
 30
0.0
 11
-376.9056485675023
 21
-266.3323829056079
 31
0.0
  0
LINE
  5
132
330
47
100
AcDbEntity
  8
1
  6
Continuous
 62
     6
100
AcDbLine
 10
-218.0504530942542
 20
-266.332382905608
 30
0.0
 11
-218.4056485675041
 21
-266.3323829056079
 31
0.0
  0
LINE
  5
133
330
47
100
AcDbEntity
  8
1
  6
Continuous
 62
     6
100
AcDbLine
 10
-124.9056485675024
 20
-249.3323829056079
 30
0.0
 11
-124.9056485675028
 21
-257.8323829056079
 31
0.0
  0
LINE
  5
134
330
47
100
AcDbEntity
  8
1
  6
Continuous
 62
     6
100
AcDbLine
 10
-376.9056485675023
 20
-266.3323829056079
 30
0.0
 11
-411.9056485675022
 21
-266.3323829056079
 31
0.0
  0
LINE
  5
135
330
47
100
AcDbEntity
  8
1
  6
Continuous
 62
     2
100
AcDbLine
 10
-250.2137982076915
 20
-243.9573829056079
 30
0.0
 11
-245.2137982076915
 21
-242.7073829056079
 31
0.0
  0
LINE
  5
136
330
47
100
AcDbEntity
  8
1
  6
Continuous
 62
     2
100
AcDbLine
 10
-250.2137982076915
 20
-246.4573829056079
 30
0.0
 11
-250.2137982076915
 21
-243.9573829056079
 31
0.0
  0
LINE
  5
137
330
47
100
AcDbEntity
  8
1
  6
Continuous
 62
     2
100
AcDbLine
 10
-245.2137982076915
 20
-247.7073829056079
 30
0.0
 11
-250.2137982076915
 21
-246.4573829056079
 31
0.0
  0
LINE
  5
138
330
47
100
AcDbEntity
  8
1
  6
Continuous
 62
     2
100
AcDbLine
 10
-245.2137982076915
 20
-242.7073829056079
 30
0.0
 11
-245.2137982076915
 21
-247.7073829056079
 31
0.0
  0
LINE
  5
139
330
47
100
AcDbEntity
  8
1
  6
Continuous
 62
     7
100
AcDbLine
 10
-254.4504530942541
 20
-262.082382905608
 30
0.0
 11
-236.2504530942541
 21
-262.0823829056079
 31
0.0
  0
LINE
  5
13A
330
47
100
AcDbEntity
  8
1
  6
Continuous
 62
     7
100
AcDbLine
 10
-254.4504530942541
 20
-262.082382905608
 30
0.0
 11
-254.4504530942541
 21
-266.332382905608
 31
0.0
  0
LINE
  5
13B
330
47
100
AcDbEntity
  8
1
  6
Continuous
 62
     7
100
AcDbLine
 10
-218.0504530942542
 20
-262.0823829056079
 30
0.0
 11
-218.0504530942542
 21
-266.332382905608
 31
0.0
  0
LINE
  5
13C
330
47
100
AcDbEntity
  8
1
  6
Continuous
 62
     7
100
AcDbLine
 10
-236.2504530942541
 20
-262.0823829056079
 30
0.0
 11
-236.2504530942541
 21
-266.3323829056079
 31
0.0
  0
LINE
  5
13D
330
47
100
AcDbEntity
  8
1
  6
Continuous
 62
     6
100
AcDbLine
 10
-236.2504530942541
 20
-266.3323829056079
 30
0.0
 11
-254.4504530942541
 21
-266.332382905608
 31
0.0
  0
LINE
  5
13E
330
47
100
AcDbEntity
  8
1
  6
Continuous
 62
     7
100
AcDbLine
 10
-236.2504530942541
 20
-262.0823829056079
 30
0.0
 11
-218.0504530942542
 21
-262.0823829056079
 31
0.0
  0
LINE
  5
13F
330
47
100
AcDbEntity
  8
1
  6
Continuous
 62
     6
100
AcDbLine
 10
-254.4504530942541
 20
-240.8323829056079
 30
0.0
 11
-124.9056485675024
 21
-240.8323829056079
 31
0.0
  0
ARC
  5
140
102
{ACAD_REACTORS
330
1A9
330
1AA
102
}
330
47
100
AcDbEntity
  8
0
  6
Continuous
 62
     2
100
AcDbCircle
 10
-239.0588050952941
 20
-257.5119781436863
 30
0.0
 40
0.7717997786796373
100
AcDbArc
 50
321.8795802028437
 51
38.12041979715293
  0
ARC
  5
141
102
{ACAD_REACTORS
330
1A9
330
1AA
102
}
330
47
100
AcDbEntity
  8
0
  6
Continuous
 62
     2
100
AcDbCircle
 10
-238.8590650589477
 20
-257.6687093218063
 30
0.0
 40
0.5179085730137051
100
AcDbArc
 50
218.1204197971838
 51
321.8795802028065
  0
ARC
  5
142
102
{ACAD_REACTORS
330
1A9
330
1AA
102
}
330
47
100
AcDbEntity
  8
0
  6
Continuous
 62
     2
100
AcDbCircle
 10
-238.6593250226016
 20
-257.5119781436863
 30
0.0
 40
0.771799778679468
100
AcDbArc
 50
141.8795802028393
 51
218.120419797164
  0
ARC
  5
143
102
{ACAD_REACTORS
330
1A9
330
1AA
102
}
330
47
100
AcDbEntity
  8
0
  6
Continuous
 62
     2
100
AcDbCircle
 10
-238.8590650589477
 20
-257.3552469655658
 30
0.0
 40
0.5179085730132775
100
AcDbArc
 50
38.12041979714898
 51
141.8795802028608
  0
ARC
  5
144
102
{ACAD_REACTORS
330
1A1
330
1A2
102
}
330
47
100
AcDbEntity
  8
0
  6
Continuous
 62
     2
100
AcDbCircle
 10
-241.9210791945116
 20
-258.9224445090945
 30
0.0
 40
2.227384008973468
100
AcDbArc
 50
58.06909105003972
 51
71.5519238818663
  0
ARC
  5
145
102
{ACAD_REACTORS
330
1A1
330
1A2
102
}
330
47
100
AcDbEntity
  8
0
  6
Continuous
 62
     2
100
AcDbCircle
 10
-241.6593514935528
 20
-257.3069067143473
 30
0.0
 40
0.511580060194863
100
AcDbArc
 50
113.3722778882033
 51
151.4785267423044
  0
ARC
  5
146
102
{ACAD_REACTORS
330
1A1
330
1A2
102
}
330
47
100
AcDbEntity
  8
0
  6
Continuous
 62
     2
100
AcDbCircle
 10
-241.2819942354725
 20
-257.5119781436863
 30
0.0
 40
0.9410597353332545
100
AcDbArc
 50
151.4785267422669
 51
208.5214732577027
  0
ARC
  5
147
102
{ACAD_REACTORS
330
1A1
330
1A2
102
}
330
47
100
AcDbEntity
  8
0
  6
Continuous
 62
     2
100
AcDbCircle
 10
-242.0789520696045
 20
-254.1992971984299
 30
0.0
 40
4.852596863498081
100
AcDbArc
 50
275.158144769625
 51
285.9799912583528
  0
ARC
  5
148
102
{ACAD_REACTORS
330
1A1
330
1A2
102
}
330
47
100
AcDbEntity
  8
0
  6
Continuous
 62
     2
100
AcDbCircle
 10
-241.7900959748686
 20
-257.3991877816515
 30
0.0
 40
1.639695123939408
100
AcDbArc
 50
195.0618917770884
 51
275.1581447696398
  0
ARC
  5
149
102
{ACAD_REACTORS
330
1A1
330
1A2
102
}
330
47
100
AcDbEntity
  8
0
  6
Continuous
 62
     2
100
AcDbCircle
 10
-242.2092238183314
 20
-257.5119781436863
 30
0.0
 40
1.205656168390986
100
AcDbArc
 50
164.9381082228742
 51
195.0618917770945
  0
ARC
  5
14A
102
{ACAD_REACTORS
330
1A1
330
1A2
102
}
330
47
100
AcDbEntity
  8
0
  6
Continuous
 62
     2
100
AcDbCircle
 10
-241.7900959748686
 20
-257.6247685057211
 30
0.0
 40
1.639695123940393
100
AcDbArc
 50
84.841855230362
 51
164.9381082228886
  0
ARC
  5
14B
102
{ACAD_REACTORS
330
1A5
330
1A6
102
}
330
47
100
AcDbEntity
  8
0
  6
Continuous
 62
     2
100
AcDbCircle
 10
-246.6201102290305
 20
-256.4781513493319
 30
0.0
 40
0.3157169230764301
100
AcDbArc
 50
115.3740086783607
 51
180.0
  0
ARC
  5
14C
102
{ACAD_REACTORS
330
1A5
330
1A6
102
}
330
47
100
AcDbEntity
  8
0
  6
Continuous
 62
     2
100
AcDbCircle
 10
-246.6201102290305
 20
-254.2598681493957
 30
0.0
 40
0.315716923076792
100
AcDbArc
 50
180.0
 51
244.6259913216548
  0
ARC
  5
14D
102
{ACAD_REACTORS
330
1A5
330
1A6
102
}
330
47
100
AcDbEntity
  8
0
  6
Continuous
 62
     2
100
AcDbCircle
 10
-246.6144940937205
 20
-255.3571678084581
 30
0.0
 40
2.018561131933152
100
AcDbArc
 50
269.8110329575866
 51
90.18896704241334
  0
ARC
  5
14E
102
{ACAD_REACTORS
330
1A5
330
1A6
102
}
330
47
100
AcDbEntity
  8
0
  6
Continuous
 62
     2
100
AcDbCircle
 10
-246.6201102290305
 20
-257.0600027560271
 30
0.0
 40
0.315716923076792
100
AcDbArc
 50
180.0
 51
269.8110329574541
  0
ARC
  5
14F
102
{ACAD_REACTORS
330
1A3
330
1A4
102
}
330
47
100
AcDbEntity
  8
0
  6
Continuous
 62
     2
100
AcDbCircle
 10
-225.5566500142999
 20
-257.3069067143473
 30
0.0
 40
0.5115800601944143
100
AcDbArc
 50
109.3371432194853
 51
151.4785267424253
  0
ARC
  5
150
102
{ACAD_REACTORS
330
1A3
330
1A4
102
}
330
47
100
AcDbEntity
  8
0
  6
Continuous
 62
     2
100
AcDbCircle
 10
-225.5566500142999
 20
-257.7170495730247
 30
0.0
 40
0.5115800601960487
100
AcDbArc
 50
208.5214732576922
 51
246.6277221118474
  0
ARC
  5
151
102
{ACAD_REACTORS
330
1A3
330
1A4
102
}
330
47
100
AcDbEntity
  8
0
  6
Continuous
 62
     2
100
AcDbCircle
 10
-226.1065223390773
 20
-257.5119781436863
 30
0.0
 40
1.205656168393017
100
AcDbArc
 50
164.9381082229002
 51
195.0618917770972
  0
ARC
  5
152
102
{ACAD_REACTORS
330
1A3
330
1A4
102
}
330
47
100
AcDbEntity
  8
0
  6
Continuous
 62
     2
100
AcDbCircle
 10
-225.6873944956157
 20
-257.6247685057211
 30
0.0
 40
1.639695123940072
100
AcDbArc
 50
90.0
 51
164.9381082228966
  0
ARC
  5
153
102
{ACAD_REACTORS
330
1A7
330
1A8
102
}
330
47
100
AcDbEntity
  8
0
  6
Continuous
 62
     2
100
AcDbCircle
 10
-235.1143895883194
 20
-254.1527876675119
 30
0.0
 40
1.526904761905797
100
AcDbArc
 50
90.0
 51
270.0
  0
ARC
  5
154
102
{ACAD_REACTORS
330
1AB
330
1AC
102
}
330
47
100
AcDbEntity
  8
0
  6
Continuous
 62
     2
100
AcDbCircle
 10
-241.8570803335452
 20
-253.6418525757173
 30
0.0
 40
0.3528638246710898
100
AcDbArc
 50
270.0
 51
90.0
  0
ARC
  5
155
102
{ACAD_REACTORS
330
1A5
330
1A6
102
}
330
47
100
AcDbEntity
  8
0
  6
Continuous
 62
     2
100
AcDbCircle
 10
-249.1956589155622
 20
-253.6541553842409
 30
0.0
 40
0.3157169230761951
100
AcDbArc
 50
90.0
 51
180.0
  0
ARC
  5
156
102
{ACAD_REACTORS
330
1A5
330
1A6
102
}
330
47
100
AcDbEntity
  8
0
  6
Continuous
 62
     2
100
AcDbCircle
 10
-247.1972412069776
 20
-255.3690097493636
 30
0.0
 40
0.9118975235577038
100
AcDbArc
 50
115.1944106485276
 51
244.8055893514861
  0
ARC
  5
157
102
{ACAD_REACTORS
330
1A5
330
1A6
102
}
330
47
100
AcDbEntity
  8
0
  6
Continuous
 62
     2
100
AcDbCircle
 10
-247.7198256545526
 20
-256.4798394954264
 30
0.0
 40
0.3157169230766215
100
AcDbArc
 50
0.0
 51
64.80558935146027
  0
ARC
  5
158
102
{ACAD_REACTORS
330
1A5
330
1A6
102
}
330
47
100
AcDbEntity
  8
0
  6
Continuous
 62
     2
100
AcDbCircle
 10
-249.7895535923087
 20
-258.6146382902083
 30
0.0
 40
0.4242446153828041
100
AcDbArc
 50
180.0
 51
270.0
  0
ARC
  5
159
102
{ACAD_REACTORS
330
1A7
330
1A8
102
}
330
47
100
AcDbEntity
  8
0
  6
Continuous
 62
     2
100
AcDbCircle
 10
-234.8981175781542
 20
-253.9960564893915
 30
0.0
 40
0.5179085730135266
100
AcDbArc
 50
38.12041979714334
 51
141.8795802028489
  0
ARC
  5
15A
102
{ACAD_REACTORS
330
1A7
330
1A8
102
}
330
47
100
AcDbEntity
  8
0
  6
Continuous
 62
     2
100
AcDbCircle
 10
-234.6983775418079
 20
-254.1527876675119
 30
0.0
 40
0.7717997786796198
100
AcDbArc
 50
141.8795802028454
 51
218.1204197971612
  0
ARC
  5
15B
102
{ACAD_REACTORS
330
1A9
330
1AA
102
}
330
47
100
AcDbEntity
  8
0
  6
Continuous
 62
     2
100
AcDbCircle
 10
-238.8590650589477
 20
-256.9734031333829
 30
0.0
 40
2.065479772208648
100
AcDbArc
 50
242.4518518243413
 51
297.5481481756852
  0
ARC
  5
15C
102
{ACAD_REACTORS
330
1A9
330
1AA
102
}
330
47
100
AcDbEntity
  8
0
  6
Continuous
 62
     2
100
AcDbCircle
 10
-238.8590650589477
 20
-258.0505531539891
 30
0.0
 40
2.065479772208543
100
AcDbArc
 50
62.451851824306
 51
117.5481481756674
  0
ARC
  5
15D
102
{ACAD_REACTORS
330
1A9
330
1AA
102
}
330
47
100
AcDbEntity
  8
0
  6
Continuous
 62
     2
100
AcDbCircle
 10
-239.140004950781
 20
-257.5119781436863
 30
0.0
 40
1.458034083651478
100
AcDbArc
 50
117.5481481756639
 51
242.4518518243371
  0
ARC
  5
15E
102
{ACAD_REACTORS
330
1A9
330
1AA
102
}
330
47
100
AcDbEntity
  8
0
  6
Continuous
 62
     2
100
AcDbCircle
 10
-238.5781251671144
 20
-257.5119781436863
 30
0.0
 40
1.458034083652028
100
AcDbArc
 50
297.5481481757005
 51
62.45185182429842
  0
ARC
  5
15F
102
{ACAD_REACTORS
330
1A7
330
1A8
102
}
330
47
100
AcDbEntity
  8
0
  6
Continuous
 62
     2
100
AcDbCircle
 10
-234.8981175781542
 20
-254.3095188456324
 30
0.0
 40
0.5179085730134372
100
AcDbArc
 50
218.1204197971511
 51
321.8795802028566
  0
ARC
  5
160
102
{ACAD_REACTORS
330
1A7
330
1A8
102
}
330
47
100
AcDbEntity
  8
0
  6
Continuous
 62
     2
100
AcDbCircle
 10
-235.0978576145004
 20
-254.1527876675119
 30
0.0
 40
0.7717997786797123
100
AcDbArc
 50
321.8795802028401
 51
38.12041979715329
  0
ARC
  5
161
102
{ACAD_REACTORS
330
1A5
330
1A6
102
}
330
47
100
AcDbEntity
  8
0
  6
Continuous
 62
     2
100
AcDbCircle
 10
-244.3162415015919
 20
-258.6146382902083
 30
0.0
 40
0.4242446153833157
100
AcDbArc
 50
270.0
 51
0.0
  0
ARC
  5
162
102
{ACAD_REACTORS
330
1A5
330
1A6
102
}
330
47
100
AcDbEntity
  8
0
  6
Continuous
 62
     2
100
AcDbCircle
 10
-244.3162415015919
 20
-253.0501275210081
 30
0.0
 40
0.4242446153838841
100
AcDbArc
 50
0.0
 51
90.0
  0
ARC
  5
163
102
{ACAD_REACTORS
330
1A5
330
1A6
102
}
330
47
100
AcDbEntity
  8
0
  6
Continuous
 62
     2
100
AcDbCircle
 10
-249.7895535923087
 20
-253.0501275210081
 30
0.0
 40
0.4242446153837989
100
AcDbArc
 50
90.0
 51
180.0
  0
ARC
  5
164
102
{ACAD_REACTORS
330
1A5
330
1A6
102
}
330
47
100
AcDbEntity
  8
0
  6
Continuous
 62
     2
100
AcDbCircle
 10
-247.7198256545526
 20
-258.010610426958
 30
0.0
 40
0.3157169230767067
100
AcDbArc
 50
270.0
 51
0.0
  0
ARC
  5
165
102
{ACAD_REACTORS
330
1A5
330
1A6
102
}
330
47
100
AcDbEntity
  8
0
  6
Continuous
 62
     2
100
AcDbCircle
 10
-247.7198256545526
 20
-254.2581800033014
 30
0.0
 40
0.3157169230760688
100
AcDbArc
 50
295.1944106485441
 51
0.0
  0
ARC
  5
166
102
{ACAD_REACTORS
330
1A5
330
1A6
102
}
330
47
100
AcDbEntity
  8
0
  6
Continuous
 62
     2
100
AcDbCircle
 10
-247.7198256545526
 20
-253.6541553842409
 30
0.0
 40
0.3157169230766215
100
AcDbArc
 50
0.0
 51
90.0
  0
ARC
  5
167
102
{ACAD_REACTORS
330
1A5
330
1A6
102
}
330
47
100
AcDbEntity
  8
0
  6
Continuous
 62
     2
100
AcDbCircle
 10
-249.1956589155622
 20
-258.010610426958
 30
0.0
 40
0.3157169230756836
100
AcDbArc
 50
180.0
 51
270.0
  0
ARC
  5
168
102
{ACAD_REACTORS
330
1AB
330
1AC
102
}
330
47
100
AcDbEntity
  8
0
  6
Continuous
 62
     2
100
AcDbCircle
 10
-241.4156078073068
 20
-253.6812485469397
 30
0.0
 40
1.055365641333793
100
AcDbArc
 50
270.0
 51
90.0
  0
ARC
  5
169
102
{ACAD_REACTORS
330
1A3
330
1A4
102
}
330
47
100
AcDbEntity
  8
0
  6
Continuous
 62
     2
100
AcDbCircle
 10
-225.6873944956157
 20
-257.3991877816515
 30
0.0
 40
1.639695123940421
100
AcDbArc
 50
195.0618917771015
 51
275.1581447696762
  0
ARC
  5
16A
102
{ACAD_REACTORS
330
1A3
330
1A4
102
}
330
47
100
AcDbEntity
  8
0
  6
Continuous
 62
     2
100
AcDbCircle
 10
-225.9762505903515
 20
-254.1992971984299
 30
0.0
 40
4.85259686349885
100
AcDbArc
 50
275.158144769636
 51
285.9799912583387
  0
ARC
  5
16B
102
{ACAD_REACTORS
330
1A3
330
1A4
102
}
330
47
100
AcDbEntity
  8
0
  6
Continuous
 62
     2
100
AcDbCircle
 10
-225.8183777152587
 20
-256.1015117782782
 30
0.0
 40
2.227384008972719
100
AcDbArc
 50
288.4480761181337
 51
301.9309089499395
  0
ARC
  5
16C
102
{ACAD_REACTORS
330
1A3
330
1A4
102
}
330
47
100
AcDbEntity
  8
0
  6
Continuous
 62
     2
100
AcDbCircle
 10
-225.4002099815968
 20
-257.3550575543147
 30
0.0
 40
0.9059297849853323
100
AcDbArc
 50
246.6277221118197
 51
288.4480761180806
  0
ARC
  5
16D
102
{ACAD_REACTORS
330
1A3
330
1A4
102
}
330
47
100
AcDbEntity
  8
0
  6
Continuous
 62
     2
100
AcDbCircle
 10
-225.1792927562185
 20
-257.5119781436863
 30
0.0
 40
0.9410597353348789
100
AcDbArc
 50
151.478526742364
 51
208.5214732576695
  0
ARC
  5
16E
102
{ACAD_REACTORS
330
1A3
330
1A4
102
}
330
47
100
AcDbEntity
  8
0
  6
Continuous
 62
     2
100
AcDbCircle
 10
-225.4099800161962
 20
-257.7248616947302
 30
0.0
 40
0.9545230068260935
100
AcDbArc
 50
90.0
 51
109.337143219432
  0
ARC
  5
16F
102
{ACAD_REACTORS
330
1A5
330
1A6
102
}
330
47
100
AcDbEntity
  8
0
  6
Continuous
 62
     2
100
AcDbCircle
 10
-246.6201102290305
 20
-253.654332860889
 30
0.0
 40
0.3157169230760711
100
AcDbArc
 50
90.18896704254594
 51
180.0
  0
ARC
  5
170
102
{ACAD_REACTORS
330
1A5
330
1A6
102
}
330
47
100
AcDbEntity
  8
0
  6
Continuous
 62
     2
100
AcDbCircle
 10
-247.1461529271184
 20
-255.3690097493636
 30
0.0
 40
0.9118481501444455
100
AcDbArc
 50
295.3740086781789
 51
64.62599132180661
  0
ARC
  5
171
102
{ACAD_REACTORS
330
1A1
330
1A2
102
}
330
47
100
AcDbEntity
  8
0
  6
Continuous
 62
     2
100
AcDbCircle
 10
-241.9210791945116
 20
-256.1015117782775
 30
0.0
 40
2.22738400897288
100
AcDbArc
 50
288.4480761181323
 51
301.930908949958
  0
ARC
  5
172
102
{ACAD_REACTORS
330
1A1
330
1A2
102
}
330
47
100
AcDbEntity
  8
0
  6
Continuous
 62
     2
100
AcDbCircle
 10
-241.5029114608508
 20
-257.3550575543147
 30
0.0
 40
0.9059297849849715
100
AcDbArc
 50
246.6277221118725
 51
288.4480761181584
  0
ARC
  5
173
102
{ACAD_REACTORS
330
1A1
330
1A2
102
}
330
47
100
AcDbEntity
  8
0
  6
Continuous
 62
     2
100
AcDbCircle
 10
-241.6593514935528
 20
-257.7170495730247
 30
0.0
 40
0.5115800601948034
100
AcDbArc
 50
208.5214732576956
 51
246.627722111827
  0
ARC
  5
174
102
{ACAD_REACTORS
330
1A1
330
1A2
102
}
330
47
100
AcDbEntity
  8
0
  6
Continuous
 62
     2
100
AcDbCircle
 10
-241.5029114608508
 20
-257.6688987330579
 30
0.0
 40
0.9059297849853318
100
AcDbArc
 50
71.55192388185178
 51
113.372277888129
  0
ARC
  5
175
102
{ACAD_REACTORS
330
1A1
330
1A2
102
}
330
47
100
AcDbEntity
  8
0
  6
Continuous
 62
     2
100
AcDbCircle
 10
-242.0789520696045
 20
-260.8246590889422
 30
0.0
 40
4.852596863498205
100
AcDbArc
 50
74.02000874164784
 51
84.84185523037509
  0
CIRCLE
  5
176
102
{ACAD_REACTORS
330
1A5
330
1A6
102
}
330
47
100
AcDbEntity
  8
0
  6
Continuous
 62
     2
100
AcDbCircle
 10
-247.1699679417912
 20
-255.3690097493636
 30
0.0
 40
0.4709789327785074
  0
CIRCLE
  5
177
330
47
100
AcDbEntity
  8
1
  6
Continuous
 62
     2
100
AcDbCircle
 10
-241.7137982076915
 20
-245.2073829056079
 30
0.0
 40
1.249999999999886
  0
CIRCLE
  5
178
330
47
100
AcDbEntity
  8
1
  6
Continuous
 62
     2
100
AcDbCircle
 10
-241.7137982076915
 20
-245.2073829056079
 30
0.0
 40
2.5
  0
TEXT
  5
17A
330
47
100
AcDbEntity
  8
1
 62
     7
100
AcDbText
 10
-199.0769053722403
 20
-248.032382905608
 30
0.0
 40
2.5
  1
/
 41
0.9
  7
CONVERTER_11
100
AcDbText
  0
TEXT
  5
17C
330
47
100
AcDbEntity
  8
1
 62
     7
100
AcDbText
 10
-196.9205408751983
 20
-248.032382905608
 30
0.0
 40
2.5
  1
00
 41
0.81
  7
CONVERTER_12
100
AcDbText
  0
TEXT
  5
17D
330
47
100
AcDbEntity
  8
1
 62
     3
100
AcDbText
 10
-159.3240568491812
 20
-248.032382905608
 30
0.0
 40
2.5
  1
12.05.2016
 41
0.81
  7
CONVERTER_12
100
AcDbText
  0
MTEXT
  5
17E
330
47
100
AcDbEntity
  8
1
 62
     2
100
AcDbMText
 10
-159.3240568491812
 20
-241.8323829056079
 30
0.0
 40
1.8
 41
0.0
 71
     1
 72
     1
  1
date
  7
CONVERTER_11
 73
     1
 44
1.32052821128451
  0
MTEXT
  5
17F
330
47
100
AcDbEntity
  8
1
 62
     2
100
AcDbMText
 10
-189.1504530942541
 20
-250.3323829056079
 30
0.0
 40
1.8
 41
0.0
 71
     1
 72
     1
  1
document-type
  7
CONVERTER_11
 73
     1
 44
1.20048019207683
  0
TEXT
  5
180
330
47
100
AcDbEntity
  8
1
 62
     3
100
AcDbText
 10
-189.1504530942541
 20
-256.532382905608
 30
0.0
 40
2.5
  1
Customer drawing select
 41
0.81
  7
CONVERTER_12
100
AcDbText
  0
MTEXT
  5
182
330
47
100
AcDbEntity
  8
1
 62
     2
100
AcDbMText
 10
-216.9504530942541
 20
-241.8323829056079
 30
0.0
 40
1.8
 41
0.0
 71
     1
 72
     1
  1
document-No. / RI
  7
CONVERTER_13
 73
     1
 44
1.32052821128451
  0
TEXT
  5
183
330
47
100
AcDbEntity
  8
1
 62
     7
100
AcDbText
 10
-216.9504530942541
 20
-248.032382905608
 30
0.0
 40
2.5
  1
00944451
 41
0.81
  7
CONVERTER_12
100
AcDbText
  0
MTEXT
  5
185
330
47
100
AcDbEntity
  8
1
 62
     3
100
AcDbMText
 10
-129.3648527083418
 20
-248.0323829056078
 30
0.0
 40
2.5
 41
0.0
 71
     8
 72
     1
  1
5:1
  7
CONVERTER_14
 73
     1
 44
1.32052821128451
  0
MTEXT
  5
186
330
47
100
AcDbEntity
  8
1
 62
     2
100
AcDbMText
 10
-132.7240568491814
 20
-241.8323829056079
 30
0.0
 40
1.8
 41
0.0
 71
     1
 72
     1
  1
scale
  7
CONVERTER_11
 73
     1
 44
1.20048019207683
  0
MTEXT
  5
187
330
47
100
AcDbEntity
  8
1
 62
     2
100
AcDbMText
 10
-216.9504530942541
 20
-250.3323829056079
 30
0.0
 40
1.8
 41
0.0
 71
     1
 72
     1
  1
ident.-No.
  7
CONVERTER_11
 73
     1
 44
1.20048019207683
  0
TEXT
  5
188
330
47
100
AcDbEntity
  8
1
 62
     7
100
AcDbText
 10
-216.5504530942544
 20
-256.532382905608
 30
0.0
 40
2.5
  1
3200425
 41
0.81
  7
CONVERTER_12
100
AcDbText
  0
MTEXT
  5
189
330
47
100
AcDbEntity
  8
1
 62
     2
100
AcDbMText
 10
-288.8884678193016
 20
-253.5823829056079
 30
0.0
 40
2.0
 41
0.0
 71
     5
 72
     1
  1
General Information\P- Simplified representation\P- Document excluded from change process\P- Linear dimensions [mm]
  7
CONVERTER_11
 73
     1
 44
1.20048019207683
  0
MTEXT
  5
18A
330
47
100
AcDbEntity
  8
1
 62
     7
100
AcDbMText
 10
-122.4056485675051
 20
-191.332382905606
 30
0.0
 40
3.5
 41
0.0
 71
     5
 72
     1
  1
C
  7
CONVERTER_11
 73
     1
 44
1.20048019207683
  0
MTEXT
  5
18B
330
47
100
AcDbEntity
  8
1
 62
     7
100
AcDbMText
 10
-122.4056485675051
 20
-88.83238290560786
 30
0.0
 40
3.5
 41
0.0
 71
     5
 72
     1
  1
A
  7
CONVERTER_11
 73
     1
 44
1.20048019207683
  0
MTEXT
  5
18C
330
47
100
AcDbEntity
  8
1
 62
     7
100
AcDbMText
 10
-122.4056485675051
 20
-141.332382905606
 30
0.0
 40
3.5
 41
0.0
 71
     5
 72
     1
  1
B
  7
CONVERTER_11
 73
     1
 44
1.20048019207683
  0
MTEXT
  5
18D
330
47
100
AcDbEntity
  8
1
 62
     7
100
AcDbMText
 10
-122.4056485675051
 20
-243.8323829056079
 30
0.0
 40
3.5
 41
0.0
 71
     5
 72
     1
  1
D
  7
CONVERTER_11
 73
     1
 44
1.20048019207683
  0
MTEXT
  5
18E
330
47
100
AcDbEntity
  8
1
 62
     7
100
AcDbMText
 10
-392.6556485675037
 20
-268.832382905608
 30
0.0
 40
3.5
 41
0.0
 71
     5
 72
     1
  1
1
  7
CONVERTER_11
 73
     1
 44
1.20048019207683
  0
MTEXT
  5
18F
330
47
100
AcDbEntity
  8
1
 62
     7
100
AcDbMText
 10
-343.4056485675041
 20
-268.832382905608
 30
0.0
 40
3.5
 41
0.0
 71
     5
 72
     1
  1
2
  7
CONVERTER_11
 73
     1
 44
1.20048019207683
  0
MTEXT
  5
190
330
47
100
AcDbEntity
  8
1
 62
     7
100
AcDbMText
 10
-293.4056485675041
 20
-268.832382905608
 30
0.0
 40
3.5
 41
0.0
 71
     5
 72
     1
  1
3
  7
CONVERTER_11
 73
     1
 44
1.20048019207683
  0
MTEXT
  5
191
330
47
100
AcDbEntity
  8
1
 62
     7
100
AcDbMText
 10
-243.4056485675042
 20
-268.832382905608
 30
0.0
 40
3.5
 41
0.0
 71
     5
 72
     1
  1
4
  7
CONVERTER_11
 73
     1
 44
1.20048019207683
  0
MTEXT
  5
192
330
47
100
AcDbEntity
  8
1
 62
     7
100
AcDbMText
 10
-193.4056485675041
 20
-268.832382905608
 30
0.0
 40
3.5
 41
0.0
 71
     5
 72
     1
  1
5
  7
CONVERTER_11
 73
     1
 44
1.20048019207683
  0
MTEXT
  5
193
330
47
100
AcDbEntity
  8
1
 62
     7
100
AcDbMText
 10
-144.1556485675049
 20
-268.832382905608
 30
0.0
 40
3.5
 41
0.0
 71
     5
 72
     1
  1
6
  7
CONVERTER_11
 73
     1
 44
1.20048019207683
  0
MTEXT
  5
194
330
47
100
AcDbEntity
  8
1
 62
     7
100
AcDbMText
 10
-414.4056485675032
 20
-88.83238290560786
 30
0.0
 40
3.5
 41
0.0
 71
     5
 72
     1
  1
A
  7
CONVERTER_11
 73
     1
 44
1.20048019207683
  0
MTEXT
  5
195
330
47
100
AcDbEntity
  8
1
 62
     7
100
AcDbMText
 10
-414.4056485675032
 20
-141.3323829056079
 30
0.0
 40
3.5
 41
0.0
 71
     5
 72
     1
  1
B
  7
CONVERTER_11
 73
     1
 44
1.20048019207683
  0
MTEXT
  5
196
330
47
100
AcDbEntity
  8
1
 62
     7
100
AcDbMText
 10
-414.4056485675032
 20
-191.3323829056079
 30
0.0
 40
3.5
 41
0.0
 71
     5
 72
     1
  1
C
  7
CONVERTER_11
 73
     1
 44
1.20048019207683
  0
MTEXT
  5
197
330
47
100
AcDbEntity
  8
1
 62
     7
100
AcDbMText
 10
-414.4056485675032
 20
-243.8323829056079
 30
0.0
 40
3.5
 41
0.0
 71
     5
 72
     1
  1
D
  7
CONVERTER_11
 73
     1
 44
1.20048019207683
  0
MTEXT
  5
198
330
47
100
AcDbEntity
  8
1
 62
     3
100
AcDbMText
 10
-228.2504530942542
 20
-245.2073829056079
 30
0.0
 40
2.5
 41
0.0
 71
     5
 72
     1
  1
DIN A4
  7
CONVERTER_11
 73
     1
 44
1.20048019207683
  0
MTEXT
  5
199
330
47
100
AcDbEntity
  8
1
 62
     2
100
AcDbMText
 10
-217.0504530942542
 20
-258.8323829056079
 30
0.0
 40
1.8
 41
0.0
 71
     1
 72
     1
  1
description
  7
CONVERTER_11
 73
     1
 44
1.20048019207683
  0
MTEXT
  5
19A
330
47
100
AcDbEntity
  8
1
 62
     7
100
AcDbMText
 10
-171.4780508308786
 20
-263.0823829056076
 30
0.0
 40
3.0
 41
0.0
 71
     5
 72
     1
  1
A 16   -12
  7
CONVERTER_12
 73
     1
 44
1.20048019207683
  0
TEXT
  5
19B
330
47
100
AcDbEntity
  8
1
 62
     2
100
AcDbText
 10
-230.0151442844406
 20
-265.082382905608
 30
0.0
 40
1.8
  1
1
 41
0.9
  7
CONVERTER_11
100
AcDbText
  0
TEXT
  5
19C
330
47
100
AcDbEntity
  8
1
 62
     2
100
AcDbText
 10
-244.8041881239121
 20
-265.1316315594099
 30
0.0
 40
1.8
  1
1
 41
0.9
  7
CONVERTER_11
100
AcDbText
  0
TEXT
  5
19D
330
47
100
AcDbEntity
  8
1
 62
     2
100
AcDbText
 10
-253.4504530942541
 20
-265.0914001205995
 30
0.0
 40
1.8
  1
page
 41
0.9
  7
CONVERTER_11
100
AcDbText
  0
TEXT
  5
19E
330
47
100
AcDbEntity
  8
1
 62
     2
100
AcDbText
 10
-235.2504530942543
 20
-265.0914001205995
 30
0.0
 40
1.8
  1
of
 41
0.9
  7
CONVERTER_11
100
AcDbText
  0
MTEXT
  5
19F
330
47
100
AcDbEntity
  8
1
 62
     3
100
AcDbMText
 10
-229.0474709426442
 20
-79.54107475030906
 30
0.0
 40
1.8
 41
0.0
 71
     7
 72
     1
  3
Transfer or duplication of this document as well as the utilisation or\Pcommunication of its content are not permitted unless express consent\Pis granted. Violations give rise to claims for damages. All rights reserved\Pin case of patent, utility mo
  1
del or design patent registrations.
  7
CONVERTER_11
 73
     1
 44
0.99639855942377
  0
MTEXT
  5
1A0
330
47
100
AcDbEntity
  8
1
 62
     3
100
AcDbMText
 10
-411.9005807814323
 20
-79.54107475030906
 30
0.0
 40
1.8
 41
0.0
 71
     7
 72
     1
  3
Weitergabe sowie Vervielf\U+00e4ltigung dieses Dokuments, Verwertung und \PMitteilung seines Inhalts sind verboten, soweit nicht ausdr\U+00fccklich gestattet. \PZuwiderhandlungen verpflichten zu Schadenersatz. Alle Rechte f\U+00fcr den Fall\Pder Pat
  1
ent-, Gebrauchsmuster- oder Designeintragung vorbehalten.
  7
CONVERTER_11
 73
     1
 44
0.99639855942377
  0
HATCH
  5
1A1
330
47
100
AcDbEntity
  8
1
  6
Continuous
 62
     2
100
AcDbHatch
 10
0.0
 20
0.0
 30
0.0
210
0.0
220
0.0
230
1.0
  2
_USER
 70
     0
 71
     1
 91
        1
 92
        1
 93
       14
 72
     2
 10
-242.2092238183314
 20
-257.5119781436863
 40
1.205656168390986
 50
164.9381082228742
 51
195.0618917770945
 73
     1
 72
     2
 10
-241.7900959748686
 20
-257.3991877816515
 40
1.639695123939408
 50
195.0618917770884
 51
275.1581447696398
 73
     1
 72
     2
 10
-242.0789520696045
 20
-254.1992971984299
 40
4.852596863498081
 50
275.158144769625
 51
285.9799912583528
 73
     1
 72
     1
 10
-240.7430241524867
 20
-258.8643795042307
 11
-240.7430241524867
 21
-257.9918624974275
 72
     2
 10
-241.9210791945116
 20
-256.1015117782775
 40
2.22738400897288
 50
58.06909105004203
 51
71.5519238818677
 73
     0
 72
     2
 10
-241.5029114608508
 20
-257.3550575543147
 40
0.9059297849849715
 50
71.55192388184153
 51
113.3722778881275
 73
     0
 72
     2
 10
-241.6593514935528
 20
-257.7170495730247
 40
0.5115800601948034
 50
113.372277888173
 51
151.4785267423044
 73
     0
 72
     2
 10
-241.2819942354725
 20
-257.5119781436863
 40
0.9410597353332545
 50
151.4785267422973
 51
208.5214732577331
 73
     0
 72
     2
 10
-241.6593514935528
 20
-257.3069067143473
 40
0.511580060194863
 50
208.5214732576956
 51
246.6277221117967
 73
     0
 72
     2
 10
-241.5029114608508
 20
-257.6688987330579
 40
0.9059297849853318
 50
246.627722111871
 51
288.4480761181483
 73
     0
 72
     2
 10
-241.9210791945116
 20
-258.9224445090945
 40
2.227384008973468
 50
288.4480761181337
 51
301.9309089499603
 73
     0
 72
     1
 10
-240.7430241524867
 20
-257.0320937899446
 11
-240.7430241524867
 21
-256.1595767831412
 72
     2
 10
-242.0789520696045
 20
-260.8246590889422
 40
4.852596863498205
 50
74.02000874164784
 51
84.84185523037509
 73
     1
 72
     2
 10
-241.7900959748686
 20
-257.6247685057211
 40
1.639695123940393
 50
84.841855230362
 51
164.9381082228886
 73
     1
 97
       14
330
175
330
8E
330
144
330
174
330
145
330
146
330
173
330
172
330
171
330
8F
330
147
330
148
330
149
330
14A
 75
     1
 76
     0
 52
45.0
 41
0.1
 77
     0
 78
     1
 53
45.0
 43
0.0
 44
0.0
 45
-0.0707106781186548
 46
0.0707106781186548
 79
     0
 98
        1
 10
0.0
 20
0.0
  0
HATCH
  5
1A2
330
47
100
AcDbEntity
  8
1
  6
Continuous
 62
     2
100
AcDbHatch
 10
0.0
 20
0.0
 30
0.0
210
0.0
220
0.0
230
1.0
  2
_USER
 70
     0
 71
     1
 91
        1
 92
        1
 93
       14
 72
     2
 10
-242.2092238183314
 20
-257.5119781436863
 40
1.205656168390986
 50
164.9381082228742
 51
195.0618917770945
 73
     1
 72
     2
 10
-241.7900959748686
 20
-257.3991877816515
 40
1.639695123939408
 50
195.0618917770884
 51
275.1581447696398
 73
     1
 72
     2
 10
-242.0789520696045
 20
-254.1992971984299
 40
4.852596863498081
 50
275.158144769625
 51
285.9799912583528
 73
     1
 72
     1
 10
-240.7430241524867
 20
-258.8643795042307
 11
-240.7430241524867
 21
-257.9918624974275
 72
     2
 10
-241.9210791945116
 20
-256.1015117782775
 40
2.22738400897288
 50
58.06909105004203
 51
71.5519238818677
 73
     0
 72
     2
 10
-241.5029114608508
 20
-257.3550575543147
 40
0.9059297849849715
 50
71.55192388184153
 51
113.3722778881275
 73
     0
 72
     2
 10
-241.6593514935528
 20
-257.7170495730247
 40
0.5115800601948034
 50
113.372277888173
 51
151.4785267423044
 73
     0
 72
     2
 10
-241.2819942354725
 20
-257.5119781436863
 40
0.9410597353332545
 50
151.4785267422973
 51
208.5214732577331
 73
     0
 72
     2
 10
-241.6593514935528
 20
-257.3069067143473
 40
0.511580060194863
 50
208.5214732576956
 51
246.6277221117967
 73
     0
 72
     2
 10
-241.5029114608508
 20
-257.6688987330579
 40
0.9059297849853318
 50
246.627722111871
 51
288.4480761181483
 73
     0
 72
     2
 10
-241.9210791945116
 20
-258.9224445090945
 40
2.227384008973468
 50
288.4480761181337
 51
301.9309089499603
 73
     0
 72
     1
 10
-240.7430241524867
 20
-257.0320937899446
 11
-240.7430241524867
 21
-256.1595767831412
 72
     2
 10
-242.0789520696045
 20
-260.8246590889422
 40
4.852596863498205
 50
74.02000874164784
 51
84.84185523037509
 73
     1
 72
     2
 10
-241.7900959748686
 20
-257.6247685057211
 40
1.639695123940393
 50
84.841855230362
 51
164.9381082228886
 73
     1
 97
       14
330
175
330
8E
330
144
330
174
330
145
330
146
330
173
330
172
330
171
330
8F
330
147
330
148
330
149
330
14A
 75
     1
 76
     0
 52
45.0
 41
0.1
 77
     0
 78
     1
 53
45.0
 43
0.0
 44
0.0
 45
-0.0707106781186548
 46
0.0707106781186548
 79
     0
 98
        1
 10
0.0
 20
0.0
  0
HATCH
  5
1A3
330
47
100
AcDbEntity
  8
1
  6
Continuous
 62
     2
100
AcDbHatch
 10
0.0
 20
0.0
 30
0.0
210
0.0
220
0.0
230
1.0
  2
_USER
 70
     0
 71
     1
 91
        1
 92
        1
 93
       18
 72
     2
 10
-225.6873944956157
 20
-257.6247685057211
 40
1.639695123940072
 50
90.0
 51
164.9381082228966
 73
     1
 72
     2
 10
-226.1065223390773
 20
-257.5119781436863
 40
1.205656168393017
 50
164.9381082229002
 51
195.0618917770972
 73
     1
 72
     2
 10
-225.6873944956157
 20
-257.3991877816515
 40
1.639695123940421
 50
195.0618917771015
 51
275.1581447696762
 73
     1
 72
     2
 10
-225.9762505903515
 20
-254.1992971984299
 40
4.85259686349885
 50
275.158144769636
 51
285.9799912583387
 73
     1
 72
     1
 10
-224.6403226732348
 20
-258.8643795042312
 11
-224.6403226732348
 21
-257.991862497428
 72
     2
 10
-225.8183777152587
 20
-256.1015117782782
 40
2.227384008972719
 50
58.0690910500605
 51
71.55192388186632
 73
     0
 72
     2
 10
-225.4002099815968
 20
-257.3550575543147
 40
0.9059297849853323
 50
71.55192388191944
 51
113.3722778881803
 73
     0
 72
     2
 10
-225.5566500142999
 20
-257.7170495730247
 40
0.5115800601960487
 50
113.3722778881526
 51
151.4785267423078
 73
     0
 72
     2
 10
-225.1792927562185
 20
-257.5119781436863
 40
0.9410597353348789
 50
151.4785267423305
 51
208.521473257636
 73
     0
 72
     2
 10
-225.5566500142999
 20
-257.3069067143473
 40
0.5115800601944143
 50
208.5214732575747
 51
250.6628567805147
 73
     0
 72
     2
 10
-225.4099800161962
 20
-257.7248616947302
 40
0.9545230068260935
 50
250.662856780568
 51
270.0
 73
     0
 72
     1
 10
-225.4099800161962
 20
-256.7703386879041
 11
-224.3063407166281
 21
-256.7703386879041
 72
     1
 10
-224.3063407166281
 20
-256.7703386879041
 11
-224.3063407166281
 21
-259.0388829055916
 72
     1
 10
-224.3063407166281
 20
-259.0388829055916
 11
-223.1135480144604
 21
-259.0388829055916
 72
     1
 10
-223.1135480144604
 20
-259.0388829055916
 11
-223.1135480144604
 21
-256.7703386879041
 72
     1
 10
-223.1135480144604
 20
-256.7703386879041
 11
-222.302448976987
 21
-256.7703386879041
 72
     1
 10
-222.302448976987
 20
-256.7703386879041
 11
-222.302448976987
 21
-255.9850733817805
 72
     1
 10
-222.302448976987
 20
-255.9850733817805
 11
-225.6873944956157
 21
-255.985073381781
 97
       18
330
F4
330
F3
330
F2
330
F1
330
F6
330
90
330
16E
330
14F
330
16D
330
150
330
16C
330
16B
330
91
330
16A
330
169
330
151
330
152
330
F5
 75
     1
 76
     0
 52
45.0
 41
0.1
 77
     0
 78
     1
 53
45.0
 43
0.0
 44
0.0
 45
-0.0707106781186548
 46
0.0707106781186548
 79
     0
 98
        1
 10
0.0
 20
0.0
  0
HATCH
  5
1A4
330
47
100
AcDbEntity
  8
1
  6
Continuous
 62
     2
100
AcDbHatch
 10
0.0
 20
0.0
 30
0.0
210
0.0
220
0.0
230
1.0
  2
_USER
 70
     0
 71
     1
 91
        1
 92
        1
 93
       18
 72
     2
 10
-225.6873944956157
 20
-257.6247685057211
 40
1.639695123940072
 50
90.0
 51
164.9381082228966
 73
     1
 72
     2
 10
-226.1065223390773
 20
-257.5119781436863
 40
1.205656168393017
 50
164.9381082229002
 51
195.0618917770972
 73
     1
 72
     2
 10
-225.6873944956157
 20
-257.3991877816515
 40
1.639695123940421
 50
195.0618917771015
 51
275.1581447696762
 73
     1
 72
     2
 10
-225.9762505903515
 20
-254.1992971984299
 40
4.85259686349885
 50
275.158144769636
 51
285.9799912583387
 73
     1
 72
     1
 10
-224.6403226732348
 20
-258.8643795042312
 11
-224.6403226732348
 21
-257.991862497428
 72
     2
 10
-225.8183777152587
 20
-256.1015117782782
 40
2.227384008972719
 50
58.0690910500605
 51
71.55192388186632
 73
     0
 72
     2
 10
-225.4002099815968
 20
-257.3550575543147
 40
0.9059297849853323
 50
71.55192388191944
 51
113.3722778881803
 73
     0
 72
     2
 10
-225.5566500142999
 20
-257.7170495730247
 40
0.5115800601960487
 50
113.3722778881526
 51
151.4785267423078
 73
     0
 72
     2
 10
-225.1792927562185
 20
-257.5119781436863
 40
0.9410597353348789
 50
151.4785267423305
 51
208.521473257636
 73
     0
 72
     2
 10
-225.5566500142999
 20
-257.3069067143473
 40
0.5115800601944143
 50
208.5214732575747
 51
250.6628567805147
 73
     0
 72
     2
 10
-225.4099800161962
 20
-257.7248616947302
 40
0.9545230068260935
 50
250.662856780568
 51
270.0
 73
     0
 72
     1
 10
-225.4099800161962
 20
-256.7703386879041
 11
-224.3063407166281
 21
-256.7703386879041
 72
     1
 10
-224.3063407166281
 20
-256.7703386879041
 11
-224.3063407166281
 21
-259.0388829055916
 72
     1
 10
-224.3063407166281
 20
-259.0388829055916
 11
-223.1135480144604
 21
-259.0388829055916
 72
     1
 10
-223.1135480144604
 20
-259.0388829055916
 11
-223.1135480144604
 21
-256.7703386879041
 72
     1
 10
-223.1135480144604
 20
-256.7703386879041
 11
-222.302448976987
 21
-256.7703386879041
 72
     1
 10
-222.302448976987
 20
-256.7703386879041
 11
-222.302448976987
 21
-255.9850733817805
 72
     1
 10
-222.302448976987
 20
-255.9850733817805
 11
-225.6873944956157
 21
-255.985073381781
 97
       18
330
F4
330
F3
330
F2
330
F1
330
F6
330
90
330
16E
330
14F
330
16D
330
150
330
16C
330
16B
330
91
330
16A
330
169
330
151
330
152
330
F5
 75
     1
 76
     0
 52
45.0
 41
0.1
 77
     0
 78
     1
 53
45.0
 43
0.0
 44
0.0
 45
-0.0707106781186548
 46
0.0707106781186548
 79
     0
 98
        1
 10
0.0
 20
0.0
  0
HATCH
  5
1A5
330
47
100
AcDbEntity
  8
1
  6
Continuous
 62
     2
100
AcDbHatch
 10
0.0
 20
0.0
 30
0.0
210
0.0
220
0.0
230
1.0
  2
_USER
 70
     0
 71
     1
 91
        4
 92
        1
 93
        8
 72
     2
 10
-249.7895535923087
 20
-253.0501275210081
 40
0.4242446153837989
 50
90.0
 51
180.0
 73
     1
 72
     1
 10
-250.2137982076915
 20
-253.0501275210081
 11
-250.2137982076915
 21
-258.6146382902083
 72
     2
 10
-249.7895535923087
 20
-258.6146382902083
 40
0.4242446153828041
 50
180.0
 51
270.0
 73
     1
 72
     1
 10
-249.7895535923087
 20
-259.0388829055916
 11
-244.3162415015919
 21
-259.0388829055916
 72
     2
 10
-244.3162415015919
 20
-258.6146382902083
 40
0.4242446153833157
 50
270.0
 51
360.0
 73
     1
 72
     1
 10
-243.891996886208
 20
-258.6146382902083
 11
-243.891996886208
 21
-253.0501275210081
 72
     2
 10
-244.3162415015919
 20
-253.0501275210081
 40
0.4242446153838841
 50
0.0
 51
90.0
 73
     1
 72
     1
 10
-244.3162415015919
 20
-252.6258829056243
 11
-249.7895535923087
 21
-252.6258829056243
 97
        8
330
162
330
BF
330
161
330
C0
330
158
330
BD
330
163
330
BE
 92
       16
 93
        1
 72
     2
 10
-247.1699679417912
 20
-255.3690097493636
 40
0.4709789327785074
 50
0.0
 51
360.0
 73
     1
 97
        1
330
176
 92
       16
 93
        8
 72
     2
 10
-247.1461529271184
 20
-255.3690097493636
 40
0.9118481501444455
 50
295.3740086781789
 51
424.6259913218066
 73
     1
 72
     2
 10
-246.6201102290305
 20
-254.2598681493957
 40
0.315716923076792
 50
115.3740086783452
 51
180.0
 73
     0
 72
     1
 10
-246.9358271521073
 20
-254.2598681493957
 11
-246.9358271521073
 21
-253.654332860889
 72
     2
 10
-246.6201102290305
 20
-253.654332860889
 40
0.3157169230760711
 50
180.0
 51
269.8110329574541
 73
     0
 72
     2
 10
-246.6144940937205
 20
-255.3571678084581
 40
2.018561131933152
 50
269.8110329575866
 51
450.1889670424134
 73
     0
 72
     2
 10
-246.6201102290305
 20
-257.0600027560271
 40
0.315716923076792
 50
90.1889670425459
 51
180.0
 73
     0
 72
     1
 10
-246.9358271521073
 20
-257.0600027560271
 11
-246.9358271521073
 21
-256.4781513493319
 72
     2
 10
-246.6201102290305
 20
-256.4781513493319
 40
0.3157169230764301
 50
180.0
 51
244.6259913216393
 73
     0
 97
        8
330
170
330
14C
330
F8
330
16F
330
14D
330
14E
330
F7
330
14B
 92
       16
 93
       12
 72
     1
 10
-249.1956589155622
 20
-258.3263273500347
 11
-247.7198256545526
 21
-258.3263273500347
 72
     2
 10
-247.7198256545526
 20
-258.010610426958
 40
0.3157169230767067
 50
270.0
 51
360.0
 73
     1
 72
     1
 10
-247.404108731476
 20
-258.010610426958
 11
-247.404108731476
 21
-256.4798394954264
 72
     2
 10
-247.7198256545526
 20
-256.4798394954264
 40
0.3157169230766215
 50
0.0
 51
64.80558935146027
 73
     1
 72
     2
 10
-247.1972412069776
 20
-255.3690097493636
 40
0.9118975235577038
 50
115.1944106485139
 51
244.8055893514724
 73
     0
 72
     2
 10
-247.7198256545526
 20
-254.2581800033014
 40
0.3157169230760688
 50
295.1944106485441
 51
360.0
 73
     1
 72
     1
 10
-247.404108731476
 20
-254.2581800033014
 11
-247.404108731476
 21
-253.6541553842409
 72
     2
 10
-247.7198256545526
 20
-253.6541553842409
 40
0.3157169230766215
 50
0.0
 51
90.0
 73
     1
 72
     1
 10
-247.7198256545526
 20
-253.3384384611647
 11
-249.1956589155622
 21
-253.3384384611647
 72
     2
 10
-249.1956589155622
 20
-253.6541553842409
 40
0.3157169230761951
 50
90.0
 51
180.0
 73
     1
 72
     1
 10
-249.5113758386379
 20
-253.6541553842409
 11
-249.5113758386379
 21
-258.010610426958
 72
     2
 10
-249.1956589155622
 20
-258.010610426958
 40
0.3157169230756836
 50
180.0
 51
270.0
 73
     1
 97
       12
330
C4
330
155
330
C3
330
166
330
C2
330
165
330
156
330
157
330
C1
330
164
330
BC
330
167
 75
     1
 76
     0
 52
45.0
 41
0.1
 77
     0
 78
     1
 53
45.0
 43
0.0
 44
0.0
 45
-0.0707106781186548
 46
0.0707106781186548
 79
     0
 98
        1
 10
0.0
 20
0.0
  0
HATCH
  5
1A6
330
47
100
AcDbEntity
  8
1
  6
Continuous
 62
     2
100
AcDbHatch
 10
0.0
 20
0.0
 30
0.0
210
0.0
220
0.0
230
1.0
  2
_USER
 70
     0
 71
     1
 91
        4
 92
        1
 93
        8
 72
     2
 10
-249.7895535923087
 20
-253.0501275210081
 40
0.4242446153837989
 50
90.0
 51
180.0
 73
     1
 72
     1
 10
-250.2137982076915
 20
-253.0501275210081
 11
-250.2137982076915
 21
-258.6146382902083
 72
     2
 10
-249.7895535923087
 20
-258.6146382902083
 40
0.4242446153828041
 50
180.0
 51
270.0
 73
     1
 72
     1
 10
-249.7895535923087
 20
-259.0388829055916
 11
-244.3162415015919
 21
-259.0388829055916
 72
     2
 10
-244.3162415015919
 20
-258.6146382902083
 40
0.4242446153833157
 50
270.0
 51
360.0
 73
     1
 72
     1
 10
-243.891996886208
 20
-258.6146382902083
 11
-243.891996886208
 21
-253.0501275210081
 72
     2
 10
-244.3162415015919
 20
-253.0501275210081
 40
0.4242446153838841
 50
0.0
 51
90.0
 73
     1
 72
     1
 10
-244.3162415015919
 20
-252.6258829056243
 11
-249.7895535923087
 21
-252.6258829056243
 97
        8
330
162
330
BF
330
161
330
C0
330
158
330
BD
330
163
330
BE
 92
       16
 93
        1
 72
     2
 10
-247.1699679417912
 20
-255.3690097493636
 40
0.4709789327785074
 50
0.0
 51
360.0
 73
     1
 97
        1
330
176
 92
       16
 93
        8
 72
     2
 10
-247.1461529271184
 20
-255.3690097493636
 40
0.9118481501444455
 50
295.3740086781789
 51
424.6259913218066
 73
     1
 72
     2
 10
-246.6201102290305
 20
-254.2598681493957
 40
0.315716923076792
 50
115.3740086783452
 51
180.0
 73
     0
 72
     1
 10
-246.9358271521073
 20
-254.2598681493957
 11
-246.9358271521073
 21
-253.654332860889
 72
     2
 10
-246.6201102290305
 20
-253.654332860889
 40
0.3157169230760711
 50
180.0
 51
269.8110329574541
 73
     0
 72
     2
 10
-246.6144940937205
 20
-255.3571678084581
 40
2.018561131933152
 50
269.8110329575866
 51
450.1889670424134
 73
     0
 72
     2
 10
-246.6201102290305
 20
-257.0600027560271
 40
0.315716923076792
 50
90.1889670425459
 51
180.0
 73
     0
 72
     1
 10
-246.9358271521073
 20
-257.0600027560271
 11
-246.9358271521073
 21
-256.4781513493319
 72
     2
 10
-246.6201102290305
 20
-256.4781513493319
 40
0.3157169230764301
 50
180.0
 51
244.6259913216393
 73
     0
 97
        8
330
170
330
14C
330
F8
330
16F
330
14D
330
14E
330
F7
330
14B
 92
       16
 93
       12
 72
     1
 10
-249.1956589155622
 20
-258.3263273500347
 11
-247.7198256545526
 21
-258.3263273500347
 72
     2
 10
-247.7198256545526
 20
-258.010610426958
 40
0.3157169230767067
 50
270.0
 51
360.0
 73
     1
 72
     1
 10
-247.404108731476
 20
-258.010610426958
 11
-247.404108731476
 21
-256.4798394954264
 72
     2
 10
-247.7198256545526
 20
-256.4798394954264
 40
0.3157169230766215
 50
0.0
 51
64.80558935146027
 73
     1
 72
     2
 10
-247.1972412069776
 20
-255.3690097493636
 40
0.9118975235577038
 50
115.1944106485139
 51
244.8055893514724
 73
     0
 72
     2
 10
-247.7198256545526
 20
-254.2581800033014
 40
0.3157169230760688
 50
295.1944106485441
 51
360.0
 73
     1
 72
     1
 10
-247.404108731476
 20
-254.2581800033014
 11
-247.404108731476
 21
-253.6541553842409
 72
     2
 10
-247.7198256545526
 20
-253.6541553842409
 40
0.3157169230766215
 50
0.0
 51
90.0
 73
     1
 72
     1
 10
-247.7198256545526
 20
-253.3384384611647
 11
-249.1956589155622
 21
-253.3384384611647
 72
     2
 10
-249.1956589155622
 20
-253.6541553842409
 40
0.3157169230761951
 50
90.0
 51
180.0
 73
     1
 72
     1
 10
-249.5113758386379
 20
-253.6541553842409
 11
-249.5113758386379
 21
-258.010610426958
 72
     2
 10
-249.1956589155622
 20
-258.010610426958
 40
0.3157169230756836
 50
180.0
 51
270.0
 73
     1
 97
       12
330
C4
330
155
330
C3
330
166
330
C2
330
165
330
156
330
157
330
C1
330
164
330
BC
330
167
 75
     1
 76
     0
 52
45.0
 41
0.1
 77
     0
 78
     1
 53
45.0
 43
0.0
 44
0.0
 45
-0.0707106781186548
 46
0.0707106781186548
 79
     0
 98
        1
 10
0.0
 20
0.0
  0
HATCH
  5
1A7
330
47
100
AcDbEntity
  8
1
  6
Continuous
 62
     2
100
AcDbHatch
 10
0.0
 20
0.0
 30
0.0
210
0.0
220
0.0
230
1.0
  2
_USER
 70
     0
 71
     1
 91
        2
 92
        1
 93
       12
 72
     2
 10
-235.1143895883194
 20
-254.1527876675119
 40
1.526904761905797
 50
90.0
 51
270.0
 73
     1
 72
     1
 10
-235.1143895883194
 20
-255.6796924294173
 11
-231.9640698645384
 21
-255.6796924294173
 72
     1
 10
-231.9640698645384
 20
-255.6796924294173
 11
-231.9640698645384
 21
-254.9816788239748
 72
     1
 10
-231.9640698645384
 20
-254.9816788239748
 11
-233.2999976909661
 21
-254.9816788239748
 72
     1
 10
-233.2999976909661
 20
-254.9816788239748
 11
-233.2999976909661
 21
-254.5017944702331
 72
     1
 10
-233.2999976909661
 20
-254.5017944702331
 11
-231.9640698645384
 21
-254.5017944702331
 72
     1
 10
-231.9640698645384
 20
-254.5017944702331
 11
-231.9640698645384
 21
-253.8037808647908
 72
     1
 10
-231.9640698645384
 20
-253.8037808647908
 11
-233.2999976909661
 21
-253.8037808647908
 72
     1
 10
-233.2999976909661
 20
-253.8037808647908
 11
-233.2999976909661
 21
-253.323896511049
 72
     1
 10
-233.2999976909661
 20
-253.323896511049
 11
-231.9640698645384
 21
-253.323896511049
 72
     1
 10
-231.9640698645384
 20
-253.323896511049
 11
-231.9640698645384
 21
-252.6258829056061
 72
     1
 10
-231.9640698645384
 20
-252.6258829056061
 11
-235.1143895883194
 21
-252.6258829056061
 97
       12
330
B3
330
AD
330
D4
330
D3
330
D2
330
D1
330
AE
330
AF
330
B0
330
B1
330
153
330
B2
 92
       16
 93
        4
 72
     2
 10
-234.6983775418079
 20
-254.1527876675119
 40
0.7717997786796198
 50
141.8795802028454
 51
218.1204197971612
 73
     1
 72
     2
 10
-234.8981175781542
 20
-254.3095188456324
 40
0.5179085730134372
 50
218.1204197971511
 51
321.8795802028566
 73
     1
 72
     2
 10
-235.0978576145004
 20
-254.1527876675119
 40
0.7717997786797123
 50
321.8795802028401
 51
398.1204197971533
 73
     1
 72
     2
 10
-234.8981175781542
 20
-253.9960564893915
 40
0.5179085730135266
 50
38.12041979714334
 51
141.8795802028489
 73
     1
 97
        4
330
160
330
15F
330
15A
330
159
 75
     1
 76
     0
 52
45.0
 41
0.1
 77
     0
 78
     1
 53
45.0
 43
0.0
 44
0.0
 45
-0.0707106781186548
 46
0.0707106781186548
 79
     0
 98
        1
 10
0.0
 20
0.0
  0
HATCH
  5
1A8
330
47
100
AcDbEntity
  8
1
  6
Continuous
 62
     2
100
AcDbHatch
 10
0.0
 20
0.0
 30
0.0
210
0.0
220
0.0
230
1.0
  2
_USER
 70
     0
 71
     1
 91
        2
 92
        1
 93
       12
 72
     2
 10
-235.1143895883194
 20
-254.1527876675119
 40
1.526904761905797
 50
90.0
 51
270.0
 73
     1
 72
     1
 10
-235.1143895883194
 20
-255.6796924294173
 11
-231.9640698645384
 21
-255.6796924294173
 72
     1
 10
-231.9640698645384
 20
-255.6796924294173
 11
-231.9640698645384
 21
-254.9816788239748
 72
     1
 10
-231.9640698645384
 20
-254.9816788239748
 11
-233.2999976909661
 21
-254.9816788239748
 72
     1
 10
-233.2999976909661
 20
-254.9816788239748
 11
-233.2999976909661
 21
-254.5017944702331
 72
     1
 10
-233.2999976909661
 20
-254.5017944702331
 11
-231.9640698645384
 21
-254.5017944702331
 72
     1
 10
-231.9640698645384
 20
-254.5017944702331
 11
-231.9640698645384
 21
-253.8037808647908
 72
     1
 10
-231.9640698645384
 20
-253.8037808647908
 11
-233.2999976909661
 21
-253.8037808647908
 72
     1
 10
-233.2999976909661
 20
-253.8037808647908
 11
-233.2999976909661
 21
-253.323896511049
 72
     1
 10
-233.2999976909661
 20
-253.323896511049
 11
-231.9640698645384
 21
-253.323896511049
 72
     1
 10
-231.9640698645384
 20
-253.323896511049
 11
-231.9640698645384
 21
-252.6258829056061
 72
     1
 10
-231.9640698645384
 20
-252.6258829056061
 11
-235.1143895883194
 21
-252.6258829056061
 97
       12
330
B3
330
AD
330
D4
330
D3
330
D2
330
D1
330
AE
330
AF
330
B0
330
B1
330
153
330
B2
 92
       16
 93
        4
 72
     2
 10
-234.6983775418079
 20
-254.1527876675119
 40
0.7717997786796198
 50
141.8795802028454
 51
218.1204197971612
 73
     1
 72
     2
 10
-234.8981175781542
 20
-254.3095188456324
 40
0.5179085730134372
 50
218.1204197971511
 51
321.8795802028566
 73
     1
 72
     2
 10
-235.0978576145004
 20
-254.1527876675119
 40
0.7717997786797123
 50
321.8795802028401
 51
398.1204197971533
 73
     1
 72
     2
 10
-234.8981175781542
 20
-253.9960564893915
 40
0.5179085730135266
 50
38.12041979714334
 51
141.8795802028489
 73
     1
 97
        4
330
160
330
15F
330
15A
330
159
 75
     1
 76
     0
 52
45.0
 41
0.1
 77
     0
 78
     1
 53
45.0
 43
0.0
 44
0.0
 45
-0.0707106781186548
 46
0.0707106781186548
 79
     0
 98
        1
 10
0.0
 20
0.0
  0
HATCH
  5
1A9
330
47
100
AcDbEntity
  8
1
  6
Continuous
 62
     2
100
AcDbHatch
 10
0.0
 20
0.0
 30
0.0
210
0.0
220
0.0
230
1.0
  2
_USER
 70
     0
 71
     1
 91
        2
 92
        1
 93
        4
 72
     2
 10
-239.140004950781
 20
-257.5119781436863
 40
1.458034083651478
 50
117.5481481756639
 51
242.4518518243371
 73
     1
 72
     2
 10
-238.8590650589477
 20
-256.9734031333829
 40
2.065479772208648
 50
242.4518518243413
 51
297.5481481756852
 73
     1
 72
     2
 10
-238.5781251671144
 20
-257.5119781436863
 40
1.458034083652028
 50
297.5481481757005
 51
422.4518518242985
 73
     1
 72
     2
 10
-238.8590650589477
 20
-258.0505531539891
 40
2.065479772208543
 50
62.451851824306
 51
117.5481481756674
 73
     1
 97
        4
330
15E
330
15B
330
15D
330
15C
 92
       16
 93
        4
 72
     2
 10
-238.8590650589477
 20
-257.3552469655658
 40
0.5179085730132775
 50
38.12041979714898
 51
141.8795802028608
 73
     1
 72
     2
 10
-238.6593250226016
 20
-257.5119781436863
 40
0.771799778679468
 50
141.8795802028393
 51
218.120419797164
 73
     1
 72
     2
 10
-238.8590650589477
 20
-257.6687093218063
 40
0.5179085730137051
 50
218.1204197971838
 51
321.8795802028065
 73
     1
 72
     2
 10
-239.0588050952941
 20
-257.5119781436863
 40
0.7717997786796373
 50
321.8795802028437
 51
398.1204197971529
 73
     1
 97
        4
330
141
330
142
330
143
330
140
 75
     1
 76
     0
 52
45.0
 41
0.1
 77
     0
 78
     1
 53
45.0
 43
0.0
 44
0.0
 45
-0.0707106781186548
 46
0.0707106781186548
 79
     0
 98
        1
 10
0.0
 20
0.0
  0
HATCH
  5
1AA
330
47
100
AcDbEntity
  8
1
  6
Continuous
 62
     2
100
AcDbHatch
 10
0.0
 20
0.0
 30
0.0
210
0.0
220
0.0
230
1.0
  2
_USER
 70
     0
 71
     1
 91
        2
 92
        1
 93
        4
 72
     2
 10
-239.140004950781
 20
-257.5119781436863
 40
1.458034083651478
 50
117.5481481756639
 51
242.4518518243371
 73
     1
 72
     2
 10
-238.8590650589477
 20
-256.9734031333829
 40
2.065479772208648
 50
242.4518518243413
 51
297.5481481756852
 73
     1
 72
     2
 10
-238.5781251671144
 20
-257.5119781436863
 40
1.458034083652028
 50
297.5481481757005
 51
422.4518518242985
 73
     1
 72
     2
 10
-238.8590650589477
 20
-258.0505531539891
 40
2.065479772208543
 50
62.451851824306
 51
117.5481481756674
 73
     1
 97
        4
330
15E
330
15B
330
15D
330
15C
 92
       16
 93
        4
 72
     2
 10
-238.8590650589477
 20
-257.3552469655658
 40
0.5179085730132775
 50
38.12041979714898
 51
141.8795802028608
 73
     1
 72
     2
 10
-238.6593250226016
 20
-257.5119781436863
 40
0.771799778679468
 50
141.8795802028393
 51
218.120419797164
 73
     1
 72
     2
 10
-238.8590650589477
 20
-257.6687093218063
 40
0.5179085730137051
 50
218.1204197971838
 51
321.8795802028065
 73
     1
 72
     2
 10
-239.0588050952941
 20
-257.5119781436863
 40
0.7717997786796373
 50
321.8795802028437
 51
398.1204197971529
 73
     1
 97
        4
330
141
330
142
330
143
330
140
 75
     1
 76
     0
 52
45.0
 41
0.1
 77
     0
 78
     1
 53
45.0
 43
0.0
 44
0.0
 45
-0.0707106781186548
 46
0.0707106781186548
 79
     0
 98
        1
 10
0.0
 20
0.0
  0
HATCH
  5
1AB
330
47
100
AcDbEntity
  8
1
  6
Continuous
 62
     2
100
AcDbHatch
 10
0.0
 20
0.0
 30
0.0
210
0.0
220
0.0
230
1.0
  2
_USER
 70
     0
 71
     1
 91
        2
 92
        1
 93
        6
 72
     1
 10
-243.4148798053412
 20
-252.6258829056061
 11
-243.4148798053412
 21
-255.6796924294173
 72
     1
 10
-243.4148798053412
 20
-255.6796924294173
 11
-242.1743753950871
 21
-255.6796924294173
 72
     1
 10
-242.1743753950871
 20
-255.6796924294173
 11
-242.1743753950871
 21
-254.7366141882735
 72
     1
 10
-242.1743753950871
 20
-254.7366141882735
 11
-241.4156078073068
 21
-254.7366141882735
 72
     2
 10
-241.4156078073068
 20
-253.6812485469397
 40
1.055365641333793
 50
270.0
 51
450.0
 73
     1
 72
     1
 10
-241.4156078073068
 20
-252.6258829056061
 11
-243.4148798053412
 21
-252.6258829056061
 97
        6
330
168
330
C5
330
BB
330
BA
330
C7
330
C6
 92
       16
 93
        4
 72
     1
 10
-241.8570803335452
 20
-253.2889887510462
 11
-242.1743753950871
 21
-253.2889887510462
 72
     1
 10
-242.1743753950871
 20
-253.2889887510462
 11
-242.1743753950871
 21
-253.9947164003884
 72
     1
 10
-242.1743753950871
 20
-253.9947164003884
 11
-241.8570803335452
 21
-253.9947164003884
 72
     2
 10
-241.8570803335452
 20
-253.6418525757173
 40
0.3528638246710898
 50
270.0
 51
450.0
 73
     1
 97
        4
330
C8
330
B9
330
C9
330
154
 75
     1
 76
     0
 52
45.0
 41
0.1
 77
     0
 78
     1
 53
45.0
 43
0.0
 44
0.0
 45
-0.0707106781186548
 46
0.0707106781186548
 79
     0
 98
        1
 10
0.0
 20
0.0
  0
HATCH
  5
1AC
330
47
100
AcDbEntity
  8
1
  6
Continuous
 62
     2
100
AcDbHatch
 10
0.0
 20
0.0
 30
0.0
210
0.0
220
0.0
230
1.0
  2
_USER
 70
     0
 71
     1
 91
        2
 92
        1
 93
        6
 72
     1
 10
-243.4148798053412
 20
-252.6258829056061
 11
-243.4148798053412
 21
-255.6796924294173
 72
     1
 10
-243.4148798053412
 20
-255.6796924294173
 11
-242.1743753950871
 21
-255.6796924294173
 72
     1
 10
-242.1743753950871
 20
-255.6796924294173
 11
-242.1743753950871
 21
-254.7366141882735
 72
     1
 10
-242.1743753950871
 20
-254.7366141882735
 11
-241.4156078073068
 21
-254.7366141882735
 72
     2
 10
-241.4156078073068
 20
-253.6812485469397
 40
1.055365641333793
 50
270.0
 51
450.0
 73
     1
 72
     1
 10
-241.4156078073068
 20
-252.6258829056061
 11
-243.4148798053412
 21
-252.6258829056061
 97
        6
330
168
330
C5
330
BB
330
BA
330
C7
330
C6
 92
       16
 93
        4
 72
     1
 10
-241.8570803335452
 20
-253.2889887510462
 11
-242.1743753950871
 21
-253.2889887510462
 72
     1
 10
-242.1743753950871
 20
-253.2889887510462
 11
-242.1743753950871
 21
-253.9947164003884
 72
     1
 10
-242.1743753950871
 20
-253.9947164003884
 11
-241.8570803335452
 21
-253.9947164003884
 72
     2
 10
-241.8570803335452
 20
-253.6418525757173
 40
0.3528638246710898
 50
270.0
 51
450.0
 73
     1
 97
        4
330
C8
330
B9
330
C9
330
154
 75
     1
 76
     0
 52
45.0
 41
0.1
 77
     0
 78
     1
 53
45.0
 43
0.0
 44
0.0
 45
-0.0707106781186548
 46
0.0707106781186548
 79
     0
 98
        1
 10
0.0
 20
0.0
  0
HATCH
  5
1AD
330
47
100
AcDbEntity
  8
1
  6
Continuous
 62
     2
100
AcDbHatch
 10
0.0
 20
0.0
 30
0.0
210
0.0
220
0.0
230
1.0
  2
_USER
 70
     0
 71
     1
 91
        1
 92
        1
 93
       12
 72
     1
 10
-223.800596610908
 20
-252.6258829056061
 11
-222.3978723931608
 21
-252.6258829056061
 72
     1
 10
-222.3978723931608
 20
-252.6258829056061
 11
-223.7004020239273
 21
-254.0988334356423
 72
     1
 10
-223.7004020239273
 20
-254.0988334356423
 11
-222.302448976987
 21
-255.6796924294173
 72
     1
 10
-222.302448976987
 20
-255.6796924294173
 11
-223.7051731947353
 21
-255.6796924294173
 72
     1
 10
-223.7051731947353
 20
-255.6796924294173
 11
-224.4017641328008
 21
-254.8919606441235
 72
     1
 10
-224.4017641328008
 20
-254.8919606441235
 11
-225.0983550708665
 21
-255.6796924294173
 72
     1
 10
-225.0983550708665
 20
-255.6796924294173
 11
-226.5010792886147
 21
-255.6796924294173
 72
     1
 10
-226.5010792886147
 20
-255.6796924294173
 11
-225.1031262416744
 21
-254.0988334356423
 72
     1
 10
-225.1031262416744
 20
-254.0988334356423
 11
-226.4056558724419
 21
-252.6258829056061
 72
     1
 10
-226.4056558724419
 20
-252.6258829056061
 11
-225.0029316546926
 21
-252.6258829056061
 72
     1
 10
-225.0029316546926
 20
-252.6258829056061
 11
-224.4017641328008
 21
-253.3057062271616
 72
     1
 10
-224.4017641328008
 20
-253.3057062271616
 11
-223.800596610908
 21
-252.6258829056061
 97
       12
330
94
330
ED
330
EC
330
EB
330
EA
330
95
330
96
330
92
330
93
330
F0
330
EF
330
EE
 75
     1
 76
     0
 52
45.0
 41
0.1
 77
     0
 78
     1
 53
45.0
 43
0.0
 44
0.0
 45
-0.0707106781186548
 46
0.0707106781186548
 79
     0
 98
        1
 10
0.0
 20
0.0
  0
HATCH
  5
1AE
330
47
100
AcDbEntity
  8
1
  6
Continuous
 62
     2
100
AcDbHatch
 10
0.0
 20
0.0
 30
0.0
210
0.0
220
0.0
230
1.0
  2
_USER
 70
     0
 71
     1
 91
        1
 92
        1
 93
       12
 72
     1
 10
-223.800596610908
 20
-252.6258829056061
 11
-222.3978723931608
 21
-252.6258829056061
 72
     1
 10
-222.3978723931608
 20
-252.6258829056061
 11
-223.7004020239273
 21
-254.0988334356423
 72
     1
 10
-223.7004020239273
 20
-254.0988334356423
 11
-222.302448976987
 21
-255.6796924294173
 72
     1
 10
-222.302448976987
 20
-255.6796924294173
 11
-223.7051731947353
 21
-255.6796924294173
 72
     1
 10
-223.7051731947353
 20
-255.6796924294173
 11
-224.4017641328008
 21
-254.8919606441235
 72
     1
 10
-224.4017641328008
 20
-254.8919606441235
 11
-225.0983550708665
 21
-255.6796924294173
 72
     1
 10
-225.0983550708665
 20
-255.6796924294173
 11
-226.5010792886147
 21
-255.6796924294173
 72
     1
 10
-226.5010792886147
 20
-255.6796924294173
 11
-225.1031262416744
 21
-254.0988334356423
 72
     1
 10
-225.1031262416744
 20
-254.0988334356423
 11
-226.4056558724419
 21
-252.6258829056061
 72
     1
 10
-226.4056558724419
 20
-252.6258829056061
 11
-225.0029316546926
 21
-252.6258829056061
 72
     1
 10
-225.0029316546926
 20
-252.6258829056061
 11
-224.4017641328008
 21
-253.3057062271616
 72
     1
 10
-224.4017641328008
 20
-253.3057062271616
 11
-223.800596610908
 21
-252.6258829056061
 97
       12
330
94
330
ED
330
EC
330
EB
330
EA
330
95
330
96
330
92
330
93
330
F0
330
EF
330
EE
 75
     1
 76
     0
 52
45.0
 41
0.1
 77
     0
 78
     1
 53
45.0
 43
0.0
 44
0.0
 45
-0.0707106781186548
 46
0.0707106781186548
 79
     0
 98
        1
 10
0.0
 20
0.0
  0
HATCH
  5
1AF
330
47
100
AcDbEntity
  8
1
  6
Continuous
 62
     2
100
AcDbHatch
 10
0.0
 20
0.0
 30
0.0
210
0.0
220
0.0
230
1.0
  2
_USER
 70
     0
 71
     1
 91
        1
 92
        1
 93
        4
 72
     1
 10
-226.6203585588316
 20
-252.6258829056061
 11
-226.6203585588316
 21
-255.6796924294173
 72
     1
 10
-226.6203585588316
 20
-255.6796924294173
 11
-227.8608629690845
 21
-255.6796924294173
 72
     1
 10
-227.8608629690845
 20
-255.6796924294173
 11
-227.8608629690845
 21
-252.6258829056061
 72
     1
 10
-227.8608629690845
 20
-252.6258829056061
 11
-226.6203585588316
 21
-252.6258829056061
 97
        4
330
E8
330
97
330
E7
330
E9
 75
     1
 76
     0
 52
45.0
 41
0.1
 77
     0
 78
     1
 53
45.0
 43
0.0
 44
0.0
 45
-0.0707106781186548
 46
0.0707106781186548
 79
     0
 98
        1
 10
0.0
 20
0.0
  0
HATCH
  5
1B0
330
47
100
AcDbEntity
  8
1
  6
Continuous
 62
     2
100
AcDbHatch
 10
0.0
 20
0.0
 30
0.0
210
0.0
220
0.0
230
1.0
  2
_USER
 70
     0
 71
     1
 91
        1
 92
        1
 93
        4
 72
     1
 10
-226.6203585588316
 20
-252.6258829056061
 11
-226.6203585588316
 21
-255.6796924294173
 72
     1
 10
-226.6203585588316
 20
-255.6796924294173
 11
-227.8608629690845
 21
-255.6796924294173
 72
     1
 10
-227.8608629690845
 20
-255.6796924294173
 11
-227.8608629690845
 21
-252.6258829056061
 72
     1
 10
-227.8608629690845
 20
-252.6258829056061
 11
-226.6203585588316
 21
-252.6258829056061
 97
        4
330
E8
330
97
330
E7
330
E9
 75
     1
 76
     0
 52
45.0
 41
0.1
 77
     0
 78
     1
 53
45.0
 43
0.0
 44
0.0
 45
-0.0707106781186548
 46
0.0707106781186548
 79
     0
 98
        1
 10
0.0
 20
0.0
  0
HATCH
  5
1B1
330
47
100
AcDbEntity
  8
1
  6
Continuous
 62
     2
100
AcDbHatch
 10
0.0
 20
0.0
 30
0.0
210
0.0
220
0.0
230
1.0
  2
_USER
 70
     0
 71
     1
 91
        2
 92
        1
 93
        8
 72
     1
 10
-227.0108025623636
 20
-259.0388829055916
 11
-228.2513069726175
 21
-259.0388829055916
 72
     1
 10
-228.2513069726175
 20
-259.0388829055916
 11
-228.4627870260933
 21
-258.4979223613736
 72
     1
 10
-228.4627870260933
 20
-258.4979223613736
 11
-229.5952286027671
 21
-258.4979223613736
 72
     1
 10
-229.5952286027671
 20
-258.4979223613736
 11
-229.8067086562429
 21
-259.0388829055916
 72
     1
 10
-229.8067086562429
 20
-259.0388829055916
 11
-231.0472130664959
 21
-259.0388829055916
 72
     1
 10
-231.0472130664959
 20
-259.0388829055916
 11
-229.6492600195566
 21
-255.9850733817805
 72
     1
 10
-229.6492600195566
 20
-255.9850733817805
 11
-228.4087556093039
 21
-255.9850733817805
 72
     1
 10
-228.4087556093039
 20
-255.9850733817805
 11
-227.0108025623636
 21
-259.0388829055916
 97
        8
330
E3
330
9D
330
E2
330
E5
330
9A
330
E4
330
9B
330
9C
 92
       16
 93
        3
 72
     1
 10
-229.3291730516221
 20
-257.8173590960671
 11
-228.7288425772396
 21
-257.8173590960671
 72
     1
 10
-228.7288425772396
 20
-257.8173590960671
 11
-229.0290078144297
 21
-257.0495441300803
 72
     1
 10
-229.0290078144297
 20
-257.0495441300803
 11
-229.3291730516221
 21
-257.8173590960671
 97
        3
330
99
330
98
330
E6
 75
     1
 76
     0
 52
45.0
 41
0.1
 77
     0
 78
     1
 53
45.0
 43
0.0
 44
0.0
 45
-0.0707106781186548
 46
0.0707106781186548
 79
     0
 98
        1
 10
0.0
 20
0.0
  0
HATCH
  5
1B2
330
47
100
AcDbEntity
  8
1
  6
Continuous
 62
     2
100
AcDbHatch
 10
0.0
 20
0.0
 30
0.0
210
0.0
220
0.0
230
1.0
  2
_USER
 70
     0
 71
     1
 91
        2
 92
        1
 93
        8
 72
     1
 10
-227.0108025623636
 20
-259.0388829055916
 11
-228.2513069726175
 21
-259.0388829055916
 72
     1
 10
-228.2513069726175
 20
-259.0388829055916
 11
-228.4627870260933
 21
-258.4979223613736
 72
     1
 10
-228.4627870260933
 20
-258.4979223613736
 11
-229.5952286027671
 21
-258.4979223613736
 72
     1
 10
-229.5952286027671
 20
-258.4979223613736
 11
-229.8067086562429
 21
-259.0388829055916
 72
     1
 10
-229.8067086562429
 20
-259.0388829055916
 11
-231.0472130664959
 21
-259.0388829055916
 72
     1
 10
-231.0472130664959
 20
-259.0388829055916
 11
-229.6492600195566
 21
-255.9850733817805
 72
     1
 10
-229.6492600195566
 20
-255.9850733817805
 11
-228.4087556093039
 21
-255.9850733817805
 72
     1
 10
-228.4087556093039
 20
-255.9850733817805
 11
-227.0108025623636
 21
-259.0388829055916
 97
        8
330
E3
330
9D
330
E2
330
E5
330
9A
330
E4
330
9B
330
9C
 92
       16
 93
        3
 72
     1
 10
-229.3291730516221
 20
-257.8173590960671
 11
-228.7288425772396
 21
-257.8173590960671
 72
     1
 10
-228.7288425772396
 20
-257.8173590960671
 11
-229.0290078144297
 21
-257.0495441300803
 72
     1
 10
-229.0290078144297
 20
-257.0495441300803
 11
-229.3291730516221
 21
-257.8173590960671
 97
        3
330
99
330
98
330
E6
 75
     1
 76
     0
 52
45.0
 41
0.1
 77
     0
 78
     1
 53
45.0
 43
0.0
 44
0.0
 45
-0.0707106781186548
 46
0.0707106781186548
 79
     0
 98
        1
 10
0.0
 20
0.0
  0
HATCH
  5
1B3
330
47
100
AcDbEntity
  8
1
  6
Continuous
 62
     2
100
AcDbHatch
 10
0.0
 20
0.0
 30
0.0
210
0.0
220
0.0
230
1.0
  2
_USER
 70
     0
 71
     1
 91
        1
 92
        1
 93
        8
 72
     1
 10
-233.2047252056781
 20
-255.9850733817805
 11
-233.2047252056781
 21
-256.7703386879041
 72
     1
 10
-233.2047252056781
 20
-256.7703386879041
 11
-232.3936261682035
 21
-256.7703386879041
 72
     1
 10
-232.3936261682035
 20
-256.7703386879041
 11
-232.3936261682035
 21
-259.0388829055916
 72
     1
 10
-232.3936261682035
 20
-259.0388829055916
 11
-231.200833466037
 21
-259.0388829055916
 72
     1
 10
-231.200833466037
 20
-259.0388829055916
 11
-231.200833466037
 21
-256.7703386879041
 72
     1
 10
-231.200833466037
 20
-256.7703386879041
 11
-230.3897344285645
 21
-256.7703386879041
 72
     1
 10
-230.3897344285645
 20
-256.7703386879041
 11
-230.3897344285645
 21
-255.9850733817805
 72
     1
 10
-230.3897344285645
 20
-255.9850733817805
 11
-233.2047252056781
 21
-255.9850733817805
 97
        8
330
DF
330
DE
330
DD
330
9E
330
9F
330
E1
330
A0
330
E0
 75
     1
 76
     0
 52
45.0
 41
0.1
 77
     0
 78
     1
 53
45.0
 43
0.0
 44
0.0
 45
-0.0707106781186548
 46
0.0707106781186548
 79
     0
 98
        1
 10
0.0
 20
0.0
  0
HATCH
  5
1B4
330
47
100
AcDbEntity
  8
1
  6
Continuous
 62
     2
100
AcDbHatch
 10
0.0
 20
0.0
 30
0.0
210
0.0
220
0.0
230
1.0
  2
_USER
 70
     0
 71
     1
 91
        1
 92
        1
 93
        8
 72
     1
 10
-233.2047252056781
 20
-255.9850733817805
 11
-233.2047252056781
 21
-256.7703386879041
 72
     1
 10
-233.2047252056781
 20
-256.7703386879041
 11
-232.3936261682035
 21
-256.7703386879041
 72
     1
 10
-232.3936261682035
 20
-256.7703386879041
 11
-232.3936261682035
 21
-259.0388829055916
 72
     1
 10
-232.3936261682035
 20
-259.0388829055916
 11
-231.200833466037
 21
-259.0388829055916
 72
     1
 10
-231.200833466037
 20
-259.0388829055916
 11
-231.200833466037
 21
-256.7703386879041
 72
     1
 10
-231.200833466037
 20
-256.7703386879041
 11
-230.3897344285645
 21
-256.7703386879041
 72
     1
 10
-230.3897344285645
 20
-256.7703386879041
 11
-230.3897344285645
 21
-255.9850733817805
 72
     1
 10
-230.3897344285645
 20
-255.9850733817805
 11
-233.2047252056781
 21
-255.9850733817805
 97
        8
330
DF
330
DE
330
DD
330
9E
330
9F
330
E1
330
A0
330
E0
 75
     1
 76
     0
 52
45.0
 41
0.1
 77
     0
 78
     1
 53
45.0
 43
0.0
 44
0.0
 45
-0.0707106781186548
 46
0.0707106781186548
 79
     0
 98
        1
 10
0.0
 20
0.0
  0
HATCH
  5
1B5
330
47
100
AcDbEntity
  8
1
  6
Continuous
 62
     2
100
AcDbHatch
 10
0.0
 20
0.0
 30
0.0
210
0.0
220
0.0
230
1.0
  2
_USER
 70
     0
 71
     1
 91
        1
 92
        1
 93
       10
 72
     1
 10
-230.532718621939
 20
-252.6258829056061
 11
-231.7255113241055
 21
-252.6258829056061
 72
     1
 10
-231.7255113241055
 20
-252.6258829056061
 11
-231.7255113241055
 21
-255.6796924294173
 72
     1
 10
-231.7255113241055
 20
-255.6796924294173
 11
-230.532718621939
 21
-255.6796924294173
 72
     1
 10
-230.532718621939
 20
-255.6796924294173
 11
-230.532718621939
 21
-254.3709169192126
 72
     1
 10
-230.532718621939
 20
-254.3709169192126
 11
-229.292214211685
 21
-255.6796924294173
 72
     1
 10
-229.292214211685
 20
-255.6796924294173
 11
-228.0994215095184
 21
-255.6796924294173
 72
     1
 10
-228.0994215095184
 20
-255.6796924294173
 11
-228.0994215095184
 21
-252.6258829056061
 72
     1
 10
-228.0994215095184
 20
-252.6258829056061
 11
-229.292214211685
 21
-252.6258829056061
 72
     1
 10
-229.292214211685
 20
-252.6258829056061
 11
-229.292214211685
 21
-253.9346584158112
 72
     1
 10
-229.292214211685
 20
-253.9346584158112
 11
-230.532718621939
 21
-252.6258829056061
 97
       10
330
D9
330
A3
330
A4
330
A5
330
A6
330
DC
330
A1
330
DB
330
DA
330
A2
 75
     1
 76
     0
 52
45.0
 41
0.1
 77
     0
 78
     1
 53
45.0
 43
0.0
 44
0.0
 45
-0.0707106781186548
 46
0.0707106781186548
 79
     0
 98
        1
 10
0.0
 20
0.0
  0
HATCH
  5
1B6
330
47
100
AcDbEntity
  8
1
  6
Continuous
 62
     2
100
AcDbHatch
 10
0.0
 20
0.0
 30
0.0
210
0.0
220
0.0
230
1.0
  2
_USER
 70
     0
 71
     1
 91
        1
 92
        1
 93
       10
 72
     1
 10
-230.532718621939
 20
-252.6258829056061
 11
-231.7255113241055
 21
-252.6258829056061
 72
     1
 10
-231.7255113241055
 20
-252.6258829056061
 11
-231.7255113241055
 21
-255.6796924294173
 72
     1
 10
-231.7255113241055
 20
-255.6796924294173
 11
-230.532718621939
 21
-255.6796924294173
 72
     1
 10
-230.532718621939
 20
-255.6796924294173
 11
-230.532718621939
 21
-254.3709169192126
 72
     1
 10
-230.532718621939
 20
-254.3709169192126
 11
-229.292214211685
 21
-255.6796924294173
 72
     1
 10
-229.292214211685
 20
-255.6796924294173
 11
-228.0994215095184
 21
-255.6796924294173
 72
     1
 10
-228.0994215095184
 20
-255.6796924294173
 11
-228.0994215095184
 21
-252.6258829056061
 72
     1
 10
-228.0994215095184
 20
-252.6258829056061
 11
-229.292214211685
 21
-252.6258829056061
 72
     1
 10
-229.292214211685
 20
-252.6258829056061
 11
-229.292214211685
 21
-253.9346584158112
 72
     1
 10
-229.292214211685
 20
-253.9346584158112
 11
-230.532718621939
 21
-252.6258829056061
 97
       10
330
D9
330
A3
330
A4
330
A5
330
A6
330
DC
330
A1
330
DB
330
DA
330
A2
 75
     1
 76
     0
 52
45.0
 41
0.1
 77
     0
 78
     1
 53
45.0
 43
0.0
 44
0.0
 45
-0.0707106781186548
 46
0.0707106781186548
 79
     0
 98
        1
 10
0.0
 20
0.0
  0
HATCH
  5
1B7
330
47
100
AcDbEntity
  8
1
  6
Continuous
 62
     2
100
AcDbHatch
 10
0.0
 20
0.0
 30
0.0
210
0.0
220
0.0
230
1.0
  2
_USER
 70
     0
 71
     1
 91
        1
 92
        1
 93
       10
 72
     1
 10
-235.7811574423576
 20
-255.9850733817805
 11
-236.9739501445252
 21
-255.9850733817805
 72
     1
 10
-236.9739501445252
 20
-255.9850733817805
 11
-236.9739501445252
 21
-259.0388829055916
 72
     1
 10
-236.9739501445252
 20
-259.0388829055916
 11
-235.7811574423576
 21
-259.0388829055916
 72
     1
 10
-235.7811574423576
 20
-259.0388829055916
 11
-235.7811574423576
 21
-257.730107395387
 72
     1
 10
-235.7811574423576
 20
-257.730107395387
 11
-234.5406530321047
 21
-259.0388829055916
 72
     1
 10
-234.5406530321047
 20
-259.0388829055916
 11
-233.3478603299383
 21
-259.0388829055916
 72
     1
 10
-233.3478603299383
 20
-259.0388829055916
 11
-233.3478603299383
 21
-255.9850733817805
 72
     1
 10
-233.3478603299383
 20
-255.9850733817805
 11
-234.5406530321047
 21
-255.9850733817805
 72
     1
 10
-234.5406530321047
 20
-255.9850733817805
 11
-234.5406530321047
 21
-257.2938488919856
 72
     1
 10
-234.5406530321047
 20
-257.2938488919856
 11
-235.7811574423576
 21
-255.9850733817805
 97
       10
330
A8
330
A9
330
AA
330
D6
330
AB
330
AC
330
D5
330
D8
330
D7
330
A7
 75
     1
 76
     0
 52
45.0
 41
0.1
 77
     0
 78
     1
 53
45.0
 43
0.0
 44
0.0
 45
-0.0707106781186548
 46
0.0707106781186548
 79
     0
 98
        1
 10
0.0
 20
0.0
  0
HATCH
  5
1B8
330
47
100
AcDbEntity
  8
1
  6
Continuous
 62
     2
100
AcDbHatch
 10
0.0
 20
0.0
 30
0.0
210
0.0
220
0.0
230
1.0
  2
_USER
 70
     0
 71
     1
 91
        1
 92
        1
 93
       10
 72
     1
 10
-235.7811574423576
 20
-255.9850733817805
 11
-236.9739501445252
 21
-255.9850733817805
 72
     1
 10
-236.9739501445252
 20
-255.9850733817805
 11
-236.9739501445252
 21
-259.0388829055916
 72
     1
 10
-236.9739501445252
 20
-259.0388829055916
 11
-235.7811574423576
 21
-259.0388829055916
 72
     1
 10
-235.7811574423576
 20
-259.0388829055916
 11
-235.7811574423576
 21
-257.730107395387
 72
     1
 10
-235.7811574423576
 20
-257.730107395387
 11
-234.5406530321047
 21
-259.0388829055916
 72
     1
 10
-234.5406530321047
 20
-259.0388829055916
 11
-233.3478603299383
 21
-259.0388829055916
 72
     1
 10
-233.3478603299383
 20
-259.0388829055916
 11
-233.3478603299383
 21
-255.9850733817805
 72
     1
 10
-233.3478603299383
 20
-255.9850733817805
 11
-234.5406530321047
 21
-255.9850733817805
 72
     1
 10
-234.5406530321047
 20
-255.9850733817805
 11
-234.5406530321047
 21
-257.2938488919856
 72
     1
 10
-234.5406530321047
 20
-257.2938488919856
 11
-235.7811574423576
 21
-255.9850733817805
 97
       10
330
A8
330
A9
330
AA
330
D6
330
AB
330
AC
330
D5
330
D8
330
D7
330
A7
 75
     1
 76
     0
 52
45.0
 41
0.1
 77
     0
 78
     1
 53
45.0
 43
0.0
 44
0.0
 45
-0.0707106781186548
 46
0.0707106781186548
 79
     0
 98
        1
 10
0.0
 20
0.0
  0
HATCH
  5
1B9
330
47
100
AcDbEntity
  8
1
  6
Continuous
 62
     2
100
AcDbHatch
 10
0.0
 20
0.0
 30
0.0
210
0.0
220
0.0
230
1.0
  2
_USER
 70
     0
 71
     1
 91
        1
 92
        1
 93
       12
 72
     1
 10
-236.782952381293
 20
-252.6258829056061
 11
-236.782952381293
 21
-255.6796924294173
 72
     1
 10
-236.782952381293
 20
-255.6796924294173
 11
-237.9757450834594
 21
-255.6796924294173
 72
     1
 10
-237.9757450834594
 20
-255.6796924294173
 11
-237.9757450834594
 21
-254.5454203205734
 72
     1
 10
-237.9757450834594
 20
-254.5454203205734
 11
-239.0254026613669
 21
-254.5454203205734
 72
     1
 10
-239.0254026613669
 20
-254.5454203205734
 11
-239.0254026613669
 21
-255.6796924294173
 72
     1
 10
-239.0254026613669
 20
-255.6796924294173
 11
-240.2181953635335
 21
-255.6796924294173
 72
     1
 10
-240.2181953635335
 20
-255.6796924294173
 11
-240.2181953635335
 21
-252.6258829056061
 72
     1
 10
-240.2181953635335
 20
-252.6258829056061
 11
-239.0254026613669
 21
-252.6258829056061
 72
     1
 10
-239.0254026613669
 20
-252.6258829056061
 11
-239.0254026613669
 21
-253.6947162389407
 72
     1
 10
-239.0254026613669
 20
-253.6947162389407
 11
-237.9757450834594
 21
-253.6947162389407
 72
     1
 10
-237.9757450834594
 20
-253.6947162389407
 11
-237.9757450834594
 21
-252.6258829056061
 72
     1
 10
-237.9757450834594
 20
-252.6258829056061
 11
-236.782952381293
 21
-252.6258829056061
 97
       12
330
D0
330
CF
330
CE
330
B6
330
B7
330
CD
330
B8
330
CC
330
CB
330
CA
330
B4
330
B5
 75
     1
 76
     0
 52
45.0
 41
0.1
 77
     0
 78
     1
 53
45.0
 43
0.0
 44
0.0
 45
-0.0707106781186548
 46
0.0707106781186548
 79
     0
 98
        1
 10
0.0
 20
0.0
  0
HATCH
  5
1BA
330
47
100
AcDbEntity
  8
1
  6
Continuous
 62
     2
100
AcDbHatch
 10
0.0
 20
0.0
 30
0.0
210
0.0
220
0.0
230
1.0
  2
_USER
 70
     0
 71
     1
 91
        1
 92
        1
 93
       12
 72
     1
 10
-236.782952381293
 20
-252.6258829056061
 11
-236.782952381293
 21
-255.6796924294173
 72
     1
 10
-236.782952381293
 20
-255.6796924294173
 11
-237.9757450834594
 21
-255.6796924294173
 72
     1
 10
-237.9757450834594
 20
-255.6796924294173
 11
-237.9757450834594
 21
-254.5454203205734
 72
     1
 10
-237.9757450834594
 20
-254.5454203205734
 11
-239.0254026613669
 21
-254.5454203205734
 72
     1
 10
-239.0254026613669
 20
-254.5454203205734
 11
-239.0254026613669
 21
-255.6796924294173
 72
     1
 10
-239.0254026613669
 20
-255.6796924294173
 11
-240.2181953635335
 21
-255.6796924294173
 72
     1
 10
-240.2181953635335
 20
-255.6796924294173
 11
-240.2181953635335
 21
-252.6258829056061
 72
     1
 10
-240.2181953635335
 20
-252.6258829056061
 11
-239.0254026613669
 21
-252.6258829056061
 72
     1
 10
-239.0254026613669
 20
-252.6258829056061
 11
-239.0254026613669
 21
-253.6947162389407
 72
     1
 10
-239.0254026613669
 20
-253.6947162389407
 11
-237.9757450834594
 21
-253.6947162389407
 72
     1
 10
-237.9757450834594
 20
-253.6947162389407
 11
-237.9757450834594
 21
-252.6258829056061
 72
     1
 10
-237.9757450834594
 20
-252.6258829056061
 11
-236.782952381293
 21
-252.6258829056061
 97
       12
330
D0
330
CF
330
CE
330
B6
330
B7
330
CD
330
B8
330
CC
330
CB
330
CA
330
B4
330
B5
 75
     1
 76
     0
 52
45.0
 41
0.1
 77
     0
 78
     1
 53
45.0
 43
0.0
 44
0.0
 45
-0.0707106781186548
 46
0.0707106781186548
 79
     0
 98
        1
 10
0.0
 20
0.0
  0
ENDBLK
  5
49
330
47
100
AcDbEntity
  8
0
100
AcDbBlockEnd
  0
BLOCK
  5
4B
330
4A
100
AcDbEntity
  8
0
100
AcDbBlockBegin
  2
_punkt
 70
     0
 10
-124.9056485675041
 20
-266.3323829056079
 30
0.0
  3
_punkt
  1

  0
LINE
  5
1BB
330
4A
100
AcDbEntity
  8
1
  6
Continuous
 62
     2
100
AcDbLine
 10
-124.9056485675041
 20
-266.3323829056079
 30
0.0
 11
-124.9056485675041
 21
-271.332382905608
 31
0.0
  0
LINE
  5
1BC
330
4A
100
AcDbEntity
  8
1
  6
Continuous
 62
     2
100
AcDbLine
 10
-124.9056485675041
 20
-266.3323829056079
 30
0.0
 11
-119.9056485675051
 21
-266.3323829056079
 31
0.0
  0
ENDBLK
  5
4C
330
4A
100
AcDbEntity
  8
0
100
AcDbBlockEnd
  0
BLOCK
  5
50
330
4D
100
AcDbEntity
  8
0
100
AcDbBlockBegin
  2
A4I_CS
 70
     0
 10
-124.9056485675041
 20
-271.332382905608
 30
0.0
  3
A4I_CS
  1

  0
INSERT
  5
4E
330
4D
100
AcDbEntity
  8
1
100
AcDbBlockReference
  2
_rahmen
 10
-124.9056485675041
 20
-271.332382905608
 30
0.0
  0
INSERT
  5
4F
330
4D
100
AcDbEntity
  8
1
100
AcDbBlockReference
  2
_punkt
 10
-124.9056485675041
 20
-266.3323829056079
 30
0.0
  0
ENDBLK
  5
51
330
4D
100
AcDbEntity
  8
0
100
AcDbBlockEnd
  0
BLOCK
  5
53
330
52
100
AcDbEntity
  8
0
100
AcDbBlockBegin
  2
3200425_A_16_12-select__1
 70
     0
 10
-42.29207215834012
 20
-44.63834972054239
 30
0.0
  3
3200425_A_16_12-select__1
  1

  0
LINE
  5
1BD
330
52
100
AcDbEntity
  8
0
  6
Continuous
 62
     7
100
AcDbLine
 10
-29.14406227313585
 20
-38.61623096903908
 30
0.0
 11
-38.23732901287247
 21
-35.99123096903908
 31
0.0
  0
LINE
  5
1BE
330
52
100
AcDbEntity
  8
0
  6
Continuous
 62
     7
100
AcDbLine
 10
-39.82117909481684
 20
-41.9871774318008
 30
0.0
 11
-41.0886715057223
 21
-42.21232110383112
 31
0.0
  0
LINE
  5
1BF
330
52
100
AcDbEntity
  8
0
  6
Continuous
 62
     7
100
AcDbLine
 10
-30.86363288143406
 20
-44.57299829058832
 30
0.0
 11
-39.95689962117068
 21
-41.94799829058832
 31
0.0
  0
LINE
  5
1C0
330
52
100
AcDbEntity
  8
0
  6
Continuous
 62
     7
100
AcDbLine
 10
-38.10160848651863
 20
-36.03041011025156
 30
0.0
 11
-39.05411428683583
 21
-35.16440815579629
 31
0.0
  0
SPLINE
  5
1C1
330
52
100
AcDbEntity
  8
0
  6
Continuous
 62
     7
100
AcDbSpline
210
0.0
220
0.0
230
1.0
 70
     8
 71
     3
 72
    19
 73
    15
 74
    13
 42
0.000000001
 43
0.0000000001
 44
0.00000001
 40
0.0
 40
0.0
 40
0.0
 40
0.0
 40
0.3631260443088495
 40
0.8111441130659287
 40
1.376821089746741
 40
2.05336360736256
 40
2.812955619668765
 40
3.616597140400564
 40
4.420238661132368
 40
5.179830673438572
 40
5.856373191054391
 40
6.422050167735212
 40
6.870068236492299
 40
7.233194280801148
 40
7.233194280801148
 40
7.233194280801148
 40
7.233194280801148
 10
-30.86363288143406
 20
-44.57299829058832
 30
0.0
 10
-30.7402794368086
 20
-44.58287736839478
 30
0.0
 10
-30.46473484025978
 20
-44.60494504584099
 30
0.0
 10
-30.05606765585962
 20
-44.34794816480411
 30
0.0
 10
-29.6620428517963
 20
-43.94887297640765
 30
0.0
 10
-29.28848306681698
 20
-43.38962173644223
 30
0.0
 10
-28.96092952882564
 20
-42.71752465342909
 30
0.0
 10
-28.69989681190662
 20
-41.97103279251432
 30
0.0
 10
-28.52293623990237
 20
-41.20027139385056
 30
0.0
 10
-28.44191037346503
 20
-40.45700790207026
 30
0.0
 10
-28.45995278788875
 20
-39.78471084448451
 30
0.0
 10
-28.58067577522149
 20
-39.23704076812442
 30
0.0
 10
-28.78950749883928
 20
-38.80178730670329
 30
0.0
 10
-29.03442133854732
 20
-38.67361157501205
 30
0.0
 10
-29.14406227313585
 20
-38.61623096903908
 30
0.0
 11
-30.86363288143406
 21
-44.57299829058832
 31
0.0
 11
-30.50054305808489
 21
-44.56786933754505
 31
0.0
 11
-30.10360451436679
 21
-44.36011952105943
 31
0.0
 11
-29.6998676488636
 21
-43.96390369209497
 31
0.0
 11
-29.31684635656903
 21
-43.40622594925694
 31
0.0
 11
-28.98064341597809
 21
-42.72508895577074
 31
0.0
 11
-28.7141696210613
 21
-41.96691258741053
 31
0.0
 11
-28.5355859118069
 21
-41.18336453674219
 31
0.0
 11
-28.45706105241992
 21
-40.42784228848231
 31
0.0
 11
-28.48394793517815
 21
-39.75183424803939
 31
0.0
 11
-28.61441268397948
 21
-39.20140769616481
 31
0.0
 11
-28.83956584022827
 21
-38.81407547446092
 31
0.0
 11
-29.14406227313585
 21
-38.61623096903908
 31
0.0
  0
SPLINE
  5
1C2
330
52
100
AcDbEntity
  8
0
  6
Continuous
 62
     7
100
AcDbSpline
210
0.0
220
0.0
230
1.0
 70
     8
 71
     3
 72
    17
 73
    13
 74
    11
 42
0.000000001
 43
0.0000000001
 44
0.00000001
 40
0.0
 40
0.0
 40
0.0
 40
0.0
 40
0.5786773660369022
 40
1.258323828038876
 40
2.010339836025527
 40
2.797263624078811
 40
3.577887253331708
 40
4.31165925226008
 40
4.963195475609818
 40
5.507883068636964
 40
5.941003852462636
 40
6.294656981617925
 40
6.294656981617925
 40
6.294656981617925
 40
6.294656981617925
 10
-30.00384757728496
 20
-38.90993587808195
 30
0.0
 10
-30.13976888638874
 20
-39.04758875201016
 30
0.0
 10
-30.43532739383684
 20
-39.3469125277799
 30
0.0
 10
-30.78480194699128
 20
-39.92456641510466
 30
0.0
 10
-31.09671005486086
 20
-40.59565895891049
 30
0.0
 10
-31.33874297178843
 20
-41.33201711507797
 30
0.0
 10
-31.49951875512616
 20
-42.0837908070325
 30
0.0
 10
-31.5676622321947
 20
-42.80362942331658
 30
0.0
 10
-31.54118999197011
 20
-43.45138913572167
 30
0.0
 10
-31.41721608645533
 20
-43.97792585153731
 30
0.0
 10
-31.20879657822595
 20
-44.39493665027555
 30
0.0
 10
-30.97067017364596
 20
-44.51778032977989
 30
0.0
 10
-30.86363288143406
 20
-44.57299829058832
 30
0.0
 11
-30.00384757728496
 21
-38.90993587808195
 31
0.0
 11
-30.39536630932048
 21
-39.33605859026309
 31
0.0
 11
-30.76149340572411
 21
-39.90865815608623
 31
0.0
 11
-31.07848331195907
 21
-40.59060058470364
 31
0.0
 11
-31.32577857326609
 21
-41.33765754480255
 31
0.0
 11
-31.48733987775425
 21
-42.10137948037872
 31
0.0
 11
-31.5526904702788
 21
-42.83223558506681
 31
0.0
 11
-31.51759071394941
 21
-43.48282566841311
 31
0.0
 11
-31.38431835176124
 21
-44.01095732827875
 31
0.0
 11
-31.16151543001401
 21
-44.38237685929681
 31
0.0
 11
-30.86363288143406
 21
-44.57299829058832
 31
0.0
  0
SPLINE
  5
1C3
330
52
100
AcDbEntity
  8
0
  6
Continuous
 62
     7
100
AcDbSpline
210
0.0
220
0.0
230
1.0
 70
     8
 71
     3
 72
    19
 73
    15
 74
    13
 42
0.000000001
 43
0.0000000001
 44
0.00000001
 40
0.0
 40
0.0
 40
0.0
 40
0.0
 40
0.3396985574083489
 40
0.758812234358683
 40
1.28799392235017
 40
1.920888535743578
 40
2.631474611941919
 40
3.383268292824265
 40
4.135061973706613
 40
4.845648049904951
 40
5.478542663298369
 40
6.007724351289855
 40
6.426838028240174
 40
6.766536585648539
 40
6.766536585648539
 40
6.766536585648539
 40
6.766536585648539
 10
-30.80816286181153
 20
-44.38084450602222
 30
0.0
 10
-30.69276770399415
 20
-44.39008622396555
 30
0.0
 10
-30.4350001785297
 20
-44.41073017896164
 30
0.0
 10
-30.0526986179859
 20
-44.17031374440088
 30
0.0
 10
-29.68409476936908
 20
-43.79698534148373
 30
0.0
 10
-29.33463561541602
 20
-43.27381482690183
 30
0.0
 10
-29.02821456367364
 20
-42.64507884578641
 30
0.0
 10
-28.78402266709893
 20
-41.94674774994378
 30
0.0
 10
-28.61847890619914
 20
-41.2257128929495
 30
0.0
 10
-28.54268051495391
 20
-40.53040188427448
 30
0.0
 10
-28.55955890298256
 20
-39.90147883045388
 30
0.0
 10
-28.67249330973186
 20
-39.38914230685636
 30
0.0
 10
-28.86785202107392
 20
-38.98196971555887
 30
0.0
 10
-29.09696496690458
 20
-38.86206338497227
 30
0.0
 10
-29.19953229275838
 20
-38.80838475360519
 30
0.0
 11
-30.80816286181153
 21
-44.38084450602222
 31
0.0
 11
-30.46849818835586
 21
-44.37604645317529
 31
0.0
 11
-30.09716858294215
 21
-44.18169985065649
 31
0.0
 11
-29.71947925714884
 21
-43.81104633323812
 31
0.0
 11
-29.36116901597006
 21
-43.28934779961543
 31
0.0
 11
-29.0466565876753
 21
-42.65215512828964
 31
0.0
 11
-28.79737465049508
 21
-41.94289336433977
 31
0.0
 11
-28.63031247087001
 21
-41.20989680081132
 31
0.0
 11
-28.55685373144347
 21
-40.50311792340692
 31
0.0
 11
-28.5820059766044
 21
-39.87072330492805
 31
0.0
 11
-28.7040536448379
 21
-39.35580814349699
 31
0.0
 11
-28.91468079100612
 21
-38.99346509738692
 31
0.0
 11
-29.19953229275838
 21
-38.80838475360519
 31
0.0
  0
SPLINE
  5
1C4
330
52
100
AcDbEntity
  8
0
  6
Continuous
 62
     7
100
AcDbSpline
210
0.0
220
0.0
230
1.0
 70
     8
 71
     3
 72
    11
 73
     7
 74
     5
 42
0.000000001
 43
0.0000000001
 44
0.00000001
 40
0.0
 40
0.0
 40
0.0
 40
0.0
 40
0.1994372910501012
 40
0.4160567802555907
 40
0.662243878161932
 40
0.9444727452754587
 40
0.9444727452754587
 40
0.9444727452754587
 40
0.9444727452754587
 10
-29.14406227313585
 20
-38.61623096903908
 30
0.0
 10
-29.21010431896186
 20
-38.60435862169447
 30
0.0
 10
-29.34787815803929
 20
-38.57959109877054
 30
0.0
 10
-29.56750893947994
 20
-38.63166437445201
 30
0.0
 10
-29.79239972580195
 20
-38.74022953696382
 30
0.0
 10
-29.93023126228679
 20
-38.85085201085727
 30
0.0
 10
-30.00384757728496
 20
-38.90993587808195
 30
0.0
 11
-29.14406227313585
 21
-38.61623096903908
 31
0.0
 11
-29.34223664016468
 21
-38.59382216783723
 31
0.0
 11
-29.5546821468179
 21
-38.6361413295604
 31
0.0
 11
-29.77681629679869
 21
-38.7422757153771
 31
0.0
 11
-30.00384757728496
 21
-38.90993587808195
 31
0.0
  0
SPLINE
  5
1C5
330
52
100
AcDbEntity
  8
0
  6
Continuous
 62
     7
100
AcDbSpline
210
0.0
220
0.0
230
1.0
 70
     8
 71
     3
 72
    11
 73
     7
 74
     5
 42
0.000000001
 43
0.0000000001
 44
0.00000001
 40
0.0
 40
0.0
 40
0.0
 40
0.0
 40
0.186570368875863
 40
0.3892144069202828
 40
0.6195184660862947
 40
0.8835390193016126
 40
0.8835390193016126
 40
0.8835390193016126
 40
0.8835390193016126
 10
-29.19953229275838
 20
-38.80838475360519
 30
0.0
 10
-29.2613135613777
 20
-38.79727836416397
 30
0.0
 10
-29.39019876563385
 20
-38.77410874691813
 30
0.0
 10
-29.5956598190486
 20
-38.82282245586023
 30
0.0
 10
-29.80604152214066
 20
-38.92438341464981
 30
0.0
 10
-29.93498070193562
 20
-39.02786895399289
 30
0.0
 10
-30.00384757728496
 20
-39.08314095883883
 30
0.0
 11
-29.19953229275838
 21
-38.80838475360519
 31
0.0
 11
-29.38492121675308
 21
-38.78742168151314
 31
0.0
 11
-29.58366056168673
 21
-38.82701057473804
 31
0.0
 11
-29.7914634761849
 21
-38.92629758082462
 31
0.0
 11
-30.00384757728496
 21
-39.08314095883883
 31
0.0
  0
SPLINE
  5
1C6
330
52
100
AcDbEntity
  8
0
  6
Continuous
 62
     7
100
AcDbSpline
210
0.0
220
0.0
230
1.0
 70
     8
 71
     3
 72
    17
 73
    13
 74
    11
 42
0.000000001
 43
0.0000000001
 44
0.00000001
 40
0.0
 40
0.0
 40
0.0
 40
0.0
 40
0.5413433430120703
 40
1.177141646166181
 40
1.880640492332857
 40
2.616795003750127
 40
3.347055818235653
 40
4.033487688232033
 40
4.642989316571213
 40
5.152535774642649
 40
5.557713282347267
 40
5.888550079945812
 40
5.888550079945812
 40
5.888550079945812
 40
5.888550079945812
 10
-30.00384757728496
 20
-39.08314095883883
 30
0.0
 10
-30.13099976981105
 20
-39.21191300233149
 30
0.0
 10
-30.40748998621537
 20
-39.49192556722208
 30
0.0
 10
-30.73441779474416
 20
-40.03231146152689
 30
0.0
 10
-31.0262027987248
 20
-40.66010771230025
 30
0.0
 10
-31.25262068878353
 20
-41.34895889063208
 30
0.0
 10
-31.40302384088823
 20
-42.05223105410391
 30
0.0
 10
-31.466770964609
 20
-42.72562846939633
 30
0.0
 10
-31.44200661067442
 20
-43.33159723258829
 30
0.0
 10
-31.3260310219212
 20
-43.82416383803634
 30
0.0
 10
-31.13105793248828
 20
-44.21427071353028
 30
0.0
 10
-30.90829452207305
 20
-44.32918899439866
 30
0.0
 10
-30.80816286181153
 20
-44.38084450602222
 30
0.0
 11
-30.00384757728496
 21
-39.08314095883883
 31
0.0
 11
-30.37010703628592
 21
-39.48177188313733
 31
0.0
 11
-30.71261302969577
 21
-40.017429541488
 31
0.0
 11
-31.00915197423814
 21
-40.65537568438815
 31
0.0
 11
-31.24049270255762
 21
-41.35423542125487
 31
0.0
 11
-31.3916306970788
 21
-42.06868497389065
 31
0.0
 11
-31.45276512234371
 21
-42.75238907182467
 31
0.0
 11
-31.41992986642267
 21
-43.3610056014067
 31
0.0
 11
-31.29525572114986
 21
-43.85506425095842
 31
0.0
 11
-31.08682718145084
 21
-44.20252123158823
 31
0.0
 11
-30.80816286181153
 21
-44.38084450602222
 31
0.0
  0
SPLINE
  5
1C7
330
52
100
AcDbEntity
  8
0
  6
Continuous
 62
     7
100
AcDbSpline
210
0.0
220
0.0
230
1.0
 70
     8
 71
     3
 72
    11
 73
     7
 74
     5
 42
0.000000001
 43
0.0000000001
 44
0.00000001
 40
0.0
 40
0.0
 40
0.0
 40
0.0
 40
0.3316227035765139
 40
0.6604540157640331
 40
1.036311641611229
 40
1.48818305350075
 40
1.48818305350075
 40
1.48818305350075
 40
1.48818305350075
 10
-39.05411428683583
 20
-35.16440815579629
 30
0.0
 10
-39.1453255555064
 20
-35.09820541867201
 30
0.0
 10
-39.3269803403944
 20
-34.96635720935517
 30
0.0
 10
-39.68898445600244
 20
-34.9508443410048
 30
0.0
 10
-40.05847237610514
 20
-35.08250065050638
 30
0.0
 10
-40.2769058593717
 20
-35.25360860563539
 30
0.0
 10
-40.39615242269822
 20
-35.34701936562205
 30
0.0
 11
-39.05411428683583
 21
-35.16440815579629
 31
0.0
 11
-39.34011569238862
 21
-34.99654864239339
 31
0.0
 11
-39.66797719688893
 21
-34.9713123862412
 31
0.0
 11
-40.0247028905905
 21
-35.08970046360788
 31
0.0
 11
-40.39615242269822
 21
-35.34701936562205
 31
0.0
  0
SPLINE
  5
1C8
330
52
100
AcDbEntity
  8
0
  6
Continuous
 62
     7
100
AcDbSpline
210
0.0
220
0.0
230
1.0
 70
     8
 71
     3
 72
    19
 73
    15
 74
    13
 42
0.000000001
 43
0.0000000001
 44
0.00000001
 40
0.0
 40
0.0
 40
0.0
 40
0.0
 40
0.6256205795654474
 40
1.352792110024437
 40
2.157666444611274
 40
3.008386868402309
 40
3.869009067794722
 40
4.702752016967939
 40
5.475141236320501
 40
6.157475477684591
 40
6.731417133526106
 40
7.196658958671096
 40
7.584266523207686
 40
7.964498230136625
 40
7.964498230136625
 40
7.964498230136625
 40
7.964498230136625
 10
-40.39615242269822
 20
-35.34701936562205
 30
0.0
 10
-40.54419785939702
 20
-35.49462921910769
 30
0.0
 10
-40.86431951294173
 20
-35.81380901521748
 30
0.0
 10
-41.25425762897223
 20
-36.42369984211104
 30
0.0
 10
-41.61073988124927
 20
-37.13403712753477
 30
0.0
 10
-41.90338271915152
 20
-37.92202552721379
 30
0.0
 10
-42.12066057055792
 20
-38.74337003375776
 30
0.0
 10
-42.25043082599956
 20
-39.55684507078223
 30
0.0
 10
-42.28649326149944
 20
-40.3207375953
 30
0.0
 10
-42.22771206144805
 20
-40.9966924283469
 30
0.0
 10
-42.07540910553576
 20
-41.55532761091749
 30
0.0
 10
-41.8336038196205
 20
-41.97091810085001
 30
0.0
 10
-41.48116639132522
 20
-42.23006570543118
 30
0.0
 10
-41.21866259836321
 20
-42.21819797011559
 30
0.0
 10
-41.0886715057223
 20
-42.21232110383112
 30
0.0
 11
-40.39615242269822
 21
-35.34701936562205
 31
0.0
 11
-40.82411076189373
 21
-35.80336655687845
 31
0.0
 11
-41.22947630004406
 21
-36.40706947555962
 31
0.0
 11
-41.59084855596166
 21
-37.1262584543239
 31
0.0
 11
-41.88915034548985
 21
-37.92296497603105
 31
0.0
 11
-42.10863298585436
 21
-38.75512958742413
 31
0.0
 11
-42.23771025468221
 21
-39.57882028402238
 31
0.0
 11
-42.26956701219058
 21
-40.35055226649077
 31
0.0
 11
-42.20252235986743
 21
-41.02958468911925
 31
0.0
 11
-42.0401148544893
 21
-41.58006886303036
 31
0.0
 11
-41.79091919067248
 21
-41.97294476682936
 31
0.0
 11
-41.46809024963853
 21
-42.18747004941937
 31
0.0
 11
-41.0886715057223
 21
-42.21232110383112
 31
0.0
  0
SPLINE
  5
1C9
330
52
100
AcDbEntity
  8
0
  6
Continuous
 62
     7
100
AcDbSpline
210
0.0
220
0.0
230
1.0
 70
     8
 71
     3
 72
    11
 73
     7
 74
     5
 42
0.000000001
 43
0.0000000001
 44
0.00000001
 40
0.0
 40
0.0
 40
0.0
 40
0.0
 40
0.1994372910500942
 40
0.4160567802555801
 40
0.6622438781619279
 40
0.9444727452754462
 40
0.9444727452754462
 40
0.9444727452754462
 40
0.9444727452754462
 10
-38.23732901287247
 20
-35.99123096903908
 30
0.0
 10
-38.30337105869847
 20
-35.97935862169447
 30
0.0
 10
-38.44114489777591
 20
-35.95459109877055
 30
0.0
 10
-38.66077567921654
 20
-36.00666437445199
 30
0.0
 10
-38.88566646553856
 20
-36.11522953696384
 30
0.0
 10
-39.02349800202339
 20
-36.22585201085724
 30
0.0
 10
-39.09711431702158
 20
-36.28493587808194
 30
0.0
 11
-38.23732901287247
 21
-35.99123096903908
 31
0.0
 11
-38.43550337990129
 21
-35.96882216783723
 31
0.0
 11
-38.6479488865545
 21
-36.0111413295604
 31
0.0
 11
-38.87008303653531
 21
-36.1172757153771
 31
0.0
 11
-39.09711431702158
 21
-36.28493587808194
 31
0.0
  0
SPLINE
  5
1CA
330
52
100
AcDbEntity
  8
0
  6
Continuous
 62
     7
100
AcDbSpline
210
0.0
220
0.0
230
1.0
 70
     8
 71
     3
 72
    17
 73
    13
 74
    11
 42
0.000000001
 43
0.0000000001
 44
0.00000001
 40
0.0
 40
0.0
 40
0.0
 40
0.0
 40
0.5786773660369054
 40
1.258323828038877
 40
2.010339836025532
 40
2.797263624078815
 40
3.577887253331712
 40
4.311659252260084
 40
4.963195475609822
 40
5.507883068636969
 40
5.941003852462643
 40
6.294656981617917
 40
6.294656981617917
 40
6.294656981617917
 40
6.294656981617917
 10
-39.09711431702158
 20
-36.28493587808194
 30
0.0
 10
-39.23303562612535
 20
-36.42258875201015
 30
0.0
 10
-39.52859413357346
 20
-36.72191252777991
 30
0.0
 10
-39.87806868672787
 20
-37.29956641510466
 30
0.0
 10
-40.18997679459748
 20
-37.97065895891049
 30
0.0
 10
-40.43200971152503
 20
-38.70701711507798
 30
0.0
 10
-40.59278549486277
 20
-39.45879080703249
 30
0.0
 10
-40.66092897193131
 20
-40.17862942331659
 30
0.0
 10
-40.6344567317067
 20
-40.82638913572164
 30
0.0
 10
-40.51048282619193
 20
-41.35292585153731
 30
0.0
 10
-40.30206331796256
 20
-41.76993665027554
 30
0.0
 10
-40.06393691338257
 20
-41.89278032977989
 30
0.0
 10
-39.95689962117068
 20
-41.94799829058832
 30
0.0
 11
-39.09711431702158
 21
-36.28493587808194
 31
0.0
 11
-39.48863304905709
 21
-36.71105859026309
 31
0.0
 11
-39.85476014546072
 21
-37.28365815608623
 31
0.0
 11
-40.17175005169567
 21
-37.96560058470364
 31
0.0
 11
-40.4190453130027
 21
-38.71265754480255
 31
0.0
 11
-40.58060661749086
 21
-39.47637948037872
 31
0.0
 11
-40.6459572100154
 21
-40.20723558506681
 31
0.0
 11
-40.61085745368601
 21
-40.85782566841311
 31
0.0
 11
-40.47758509149784
 21
-41.38595732827875
 31
0.0
 11
-40.25478216975061
 21
-41.75737685929681
 31
0.0
 11
-39.95689962117068
 21
-41.94799829058832
 31
0.0
  0
ENDBLK
  5
54
330
52
100
AcDbEntity
  8
0
100
AcDbBlockEnd
  0
BLOCK
  5
57
330
55
100
AcDbEntity
  8
0
100
AcDbBlockBegin
  2
Allg1
 70
     0
 10
-35.19999999999592
 20
-40.08726200000098
 30
0.0
  3
Allg1
  1

  0
INSERT
  5
56
330
55
100
AcDbEntity
  8
0
100
AcDbBlockReference
  2
3200425_A_16_12-select__1
 10
-42.29207215834012
 20
-44.63834972054239
 30
0.0
  0
MTEXT
  5
1CB
330
55
100
AcDbEntity
  8
1
 62
     6
100
AcDbMText
 10
-35.19999999999601
 20
-47.44946307664137
 30
0.0
 40
1.0
 41
0.0
 71
     2
 72
     1
  1
 
  7
CONVERTER_11
 73
     1
 44
1.32052821128451
  0
ENDBLK
  5
58
330
55
100
AcDbEntity
  8
0
100
AcDbBlockEnd
  0
BLOCK
  5
5A
330
59
100
AcDbEntity
  8
0
100
AcDbBlockBegin
  2
3200425_A_16_12-select__2
 70
     0
 10
-66.4915051460166
 20
-41.63726248741153
 30
0.0
  3
3200425_A_16_12-select__2
  1

  0
LINE
  5
1CC
330
59
100
AcDbEntity
  8
1
  6
DOT_CENTER
 62
     2
100
AcDbLine
 10
-54.49150514601661
 20
-37.88726248741153
 30
0.0
 11
-66.4915051460166
 21
-37.88726248741153
 31
0.0
  0
LINE
  5
1CD
330
59
100
AcDbEntity
  8
0
  6
Continuous
 62
     7
100
AcDbLine
 10
-64.9915051460166
 20
-40.98726248741154
 30
0.0
 11
-66.4915051460166
 21
-41.63726248741153
 31
0.0
  0
LINE
  5
1CE
330
59
100
AcDbEntity
  8
0
  6
Continuous
 62
     7
100
AcDbLine
 10
-64.9915051460166
 20
-34.78726248741153
 30
0.0
 11
-64.9915051460166
 21
-37.88726248741153
 31
0.0
  0
LINE
  5
1CF
330
59
100
AcDbEntity
  8
0
  6
Continuous
 62
     7
100
AcDbLine
 10
-64.9915051460166
 20
-37.88726248741153
 30
0.0
 11
-64.9915051460166
 21
-40.98726248741154
 31
0.0
  0
LINE
  5
1D0
330
59
100
AcDbEntity
  8
0
  6
Continuous
 62
     7
100
AcDbLine
 10
-54.49150514601661
 20
-37.88726248741153
 30
0.0
 11
-54.49150514601661
 21
-40.98726248741154
 31
0.0
  0
LINE
  5
1D1
330
59
100
AcDbEntity
  8
0
  6
Continuous
 62
     7
100
AcDbLine
 10
-54.49150514601661
 20
-34.78726248741153
 30
0.0
 11
-54.49150514601661
 21
-37.88726248741153
 31
0.0
  0
LINE
  5
1D2
330
59
100
AcDbEntity
  8
0
  6
Continuous
 62
     7
100
AcDbLine
 10
-54.49150514601661
 20
-34.78726248741153
 30
0.0
 11
-64.9915051460166
 21
-34.78726248741153
 31
0.0
  0
LINE
  5
1D3
330
59
100
AcDbEntity
  8
0
  6
Continuous
 62
     7
100
AcDbLine
 10
-66.4915051460166
 20
-34.13726248741153
 30
0.0
 11
-66.4915051460166
 21
-37.88726248741153
 31
0.0
  0
LINE
  5
1D4
330
59
100
AcDbEntity
  8
0
  6
Continuous
 62
     7
100
AcDbLine
 10
-66.4915051460166
 20
-37.88726248741153
 30
0.0
 11
-66.4915051460166
 21
-41.63726248741153
 31
0.0
  0
LINE
  5
1D5
330
59
100
AcDbEntity
  8
0
  6
Continuous
 62
     7
100
AcDbLine
 10
-54.49150514601661
 20
-40.98726248741154
 30
0.0
 11
-64.9915051460166
 21
-40.98726248741154
 31
0.0
  0
LINE
  5
1D6
330
59
100
AcDbEntity
  8
0
  6
Continuous
 62
     7
100
AcDbLine
 10
-64.9915051460166
 20
-34.78726248741153
 30
0.0
 11
-66.4915051460166
 21
-34.13726248741153
 31
0.0
  0
ENDBLK
  5
5B
330
59
100
AcDbEntity
  8
0
100
AcDbBlockEnd
  0
BLOCK
  5
5E
330
5C
100
AcDbEntity
  8
0
100
AcDbBlockBegin
  2
Drfsicht1
 70
     0
 10
-60.49150514602161
 20
-37.88726248741153
 30
0.0
  3
Drfsicht1
  1

  0
INSERT
  5
5D
330
5C
100
AcDbEntity
  8
0
100
AcDbBlockReference
  2
3200425_A_16_12-select__2
 10
-66.4915051460166
 20
-41.63726248741153
 30
0.0
  0
MTEXT
  5
1D7
330
5C
100
AcDbEntity
  8
1
 62
     6
100
AcDbMText
 10
-60.49150514602161
 20
-42.63301506042484
 30
0.0
 40
1.0
 41
0.0
 71
     2
 72
     1
  1
 
  7
CONVERTER_11
 73
     1
 44
1.32052821128451
  0
ENDBLK
  5
5F
330
5C
100
AcDbEntity
  8
0
100
AcDbBlockEnd
  0
BLOCK
  5
61
330
60
100
AcDbEntity
  8
0
100
AcDbBlockBegin
  2
3200425_A_16_12-select__3
 70
     0
 10
-39.00000000001501
 20
-28.1584900856018
 30
0.0
  3
3200425_A_16_12-select__3
  1

  0
LINE
  5
1D8
330
60
100
AcDbEntity
  8
1
  6
DOT_CENTER
 62
     2
100
AcDbLine
 10
-39.00000000001501
 20
-24.40849008560178
 30
0.0
 11
-27.000000000015
 21
-24.4084900856018
 31
0.0
  0
LINE
  5
1D9
330
60
100
AcDbEntity
  8
0
  6
Continuous
 62
     7
100
AcDbLine
 10
-28.50000000001501
 20
-21.30849008560179
 30
0.0
 11
-27.00000000001501
 21
-20.65849008560179
 31
0.0
  0
LINE
  5
1DA
330
60
100
AcDbEntity
  8
0
  6
Continuous
 62
     7
100
AcDbLine
 10
-28.50000000001501
 20
-27.5084900856018
 30
0.0
 11
-28.50000000001501
 21
-21.30849008560179
 31
0.0
  0
LINE
  5
1DB
330
60
100
AcDbEntity
  8
0
  6
Continuous
 62
     7
100
AcDbLine
 10
-39.00000000001501
 20
-27.5084900856018
 30
0.0
 11
-39.00000000001501
 21
-21.30849008560179
 31
0.0
  0
LINE
  5
1DC
330
60
100
AcDbEntity
  8
0
  6
Continuous
 62
     7
100
AcDbLine
 10
-39.00000000001501
 20
-27.5084900856018
 30
0.0
 11
-28.50000000001501
 21
-27.5084900856018
 31
0.0
  0
LINE
  5
1DD
330
60
100
AcDbEntity
  8
0
  6
Continuous
 62
     7
100
AcDbLine
 10
-27.00000000001501
 20
-28.1584900856018
 30
0.0
 11
-27.00000000001501
 21
-20.65849008560179
 31
0.0
  0
LINE
  5
1DE
330
60
100
AcDbEntity
  8
0
  6
Continuous
 62
     7
100
AcDbLine
 10
-39.00000000001501
 20
-21.30849008560179
 30
0.0
 11
-28.50000000001501
 21
-21.30849008560179
 31
0.0
  0
LINE
  5
1DF
330
60
100
AcDbEntity
  8
0
  6
Continuous
 62
     7
100
AcDbLine
 10
-28.50000000001501
 20
-27.5084900856018
 30
0.0
 11
-27.00000000001501
 21
-28.1584900856018
 31
0.0
  0
ENDBLK
  5
62
330
60
100
AcDbEntity
  8
0
100
AcDbBlockEnd
  0
BLOCK
  5
65
330
63
100
AcDbEntity
  8
0
100
AcDbBlockBegin
  2
Rckans1
 70
     0
 10
-33.00000000001
 20
-24.39999999999998
 30
0.0
  3
Rckans1
  1

  0
INSERT
  5
64
330
63
100
AcDbEntity
  8
0
100
AcDbBlockReference
  2
3200425_A_16_12-select__3
 10
-39.00000000001501
 20
-28.1584900856018
 30
0.0
  0
MTEXT
  5
1E0
330
63
100
AcDbEntity
  8
1
 62
     6
100
AcDbMText
 10
-33.00000000001
 20
-29.14150991439817
 30
0.0
 40
1.0
 41
0.0
 71
     2
 72
     1
  1
 
  7
CONVERTER_11
 73
     1
 44
1.32052821128451
  0
ENDBLK
  5
66
330
63
100
AcDbEntity
  8
0
100
AcDbBlockEnd
  0
BLOCK
  5
68
330
67
100
AcDbEntity
  8
0
100
AcDbBlockBegin
  2
3200425_A_16_12-select__4
 70
     0
 10
-50.4957534269867
 20
-28.15849008560178
 30
0.0
  3
3200425_A_16_12-select__4
  1

  0
LINE
  5
1E1
330
67
100
AcDbEntity
  8
1
  6
DOT_CENTER
 62
     2
100
AcDbLine
 10
-46.7457534269867
 20
-20.28349008560178
 30
0.0
 11
-46.7457534269867
 21
-28.53349008560178
 31
0.0
  0
LINE
  5
1E2
330
67
100
AcDbEntity
  8
1
  6
DOT_CENTER
 62
     2
100
AcDbLine
 10
-42.6207534269867
 20
-24.40849008560178
 30
0.0
 11
-50.8707534269867
 21
-24.40849008560178
 31
0.0
  0
CIRCLE
  5
1E3
330
67
100
AcDbEntity
  8
0
  6
Continuous
 62
     7
100
AcDbCircle
 10
-46.7457534269867
 20
-24.40849008560178
 30
0.0
 40
3.75
  0
CIRCLE
  5
1E4
330
67
100
AcDbEntity
  8
0
  6
Continuous
 62
     7
100
AcDbCircle
 10
-46.7457534269867
 20
-24.40849008560178
 30
0.0
 40
2.899999999999991
  0
ENDBLK
  5
69
330
67
100
AcDbEntity
  8
0
100
AcDbBlockEnd
  0
BLOCK
  5
6C
330
6A
100
AcDbEntity
  8
0
100
AcDbBlockBegin
  2
SA_Links1
 70
     0
 10
-46.7457534269867
 20
-24.39999999999998
 30
0.0
  3
SA_Links1
  1

  0
INSERT
  5
6B
330
6A
100
AcDbEntity
  8
0
100
AcDbBlockReference
  2
3200425_A_16_12-select__4
 10
-50.4957534269867
 20
-28.15849008560178
 30
0.0
  0
MTEXT
  5
1E5
330
6A
100
AcDbEntity
  8
1
 62
     6
100
AcDbMText
 10
-46.74575342698674
 20
-29.1415099143982
 30
0.0
 40
1.0
 41
0.0
 71
     2
 72
     1
  1
 
  7
CONVERTER_11
 73
     1
 44
1.32052821128451
  0
ENDBLK
  5
6D
330
6A
100
AcDbEntity
  8
0
100
AcDbBlockEnd
  0
BLOCK
  5
6F
330
6E
100
AcDbEntity
  8
0
100
AcDbBlockBegin
  2
3200425_A_16_12-select__5
 70
     0
 10
-79.98725942698665
 20
-28.1584900856018
 30
0.0
  3
3200425_A_16_12-select__5
  1

  0
LINE
  5
1E6
330
6E
100
AcDbEntity
  8
1
  6
DOT_CENTER
 62
     2
100
AcDbLine
 10
-76.23725942698665
 20
-20.28349008560179
 30
0.0
 11
-76.23725942698665
 21
-28.53349008560181
 31
0.0
  0
LINE
  5
1E7
330
6E
100
AcDbEntity
  8
1
  6
DOT_CENTER
 62
     2
100
AcDbLine
 10
-72.11225942698664
 20
-24.4084900856018
 30
0.0
 11
-80.36225942698667
 21
-24.4084900856018
 31
0.0
  0
CIRCLE
  5
1E8
330
6E
100
AcDbEntity
  8
0
  6
Continuous
 62
     7
100
AcDbCircle
 10
-76.23725942698665
 20
-24.4084900856018
 30
0.0
 40
3.750000000000011
  0
CIRCLE
  5
1E9
330
6E
100
AcDbEntity
  8
0
  6
Continuous
 62
     7
100
AcDbCircle
 10
-76.23725942698665
 20
-24.4084900856018
 30
0.0
 40
2.900000000000002
  0
CIRCLE
  5
1EA
330
6E
100
AcDbEntity
  8
0
  6
Continuous
 62
     7
100
AcDbCircle
 10
-76.23725942698665
 20
-24.4084900856018
 30
0.0
 40
3.100000000000012
  0
ENDBLK
  5
70
330
6E
100
AcDbEntity
  8
0
100
AcDbBlockEnd
  0
BLOCK
  5
73
330
71
100
AcDbEntity
  8
0
100
AcDbBlockBegin
  2
SA_Rechts1
 70
     0
 10
-76.23725942698665
 20
-24.39999999999998
 30
0.0
  3
SA_Rechts1
  1

  0
INSERT
  5
72
330
71
100
AcDbEntity
  8
0
100
AcDbBlockReference
  2
3200425_A_16_12-select__5
 10
-79.98725942698665
 20
-28.1584900856018
 30
0.0
  0
MTEXT
  5
1EB
330
71
100
AcDbEntity
  8
1
 62
     6
100
AcDbMText
 10
-76.2372594269867
 20
-29.14150991439817
 30
0.0
 40
1.0
 41
0.0
 71
     2
 72
     1
  1
 
  7
CONVERTER_11
 73
     1
 44
1.32052821128451
  0
ENDBLK
  5
74
330
71
100
AcDbEntity
  8
0
100
AcDbBlockEnd
  0
BLOCK
  5
76
330
75
100
AcDbEntity
  8
0
100
AcDbBlockBegin
  2
3200425_A_16_12-select__6
 70
     0
 10
-66.49150514601656
 20
-28.1584900856018
 30
0.0
  3
3200425_A_16_12-select__6
  1

  0
LINE
  5
1EC
330
75
100
AcDbEntity
  8
1
  6
DOT_CENTER
 62
     2
100
AcDbLine
 10
-54.49150514601661
 20
-24.40849008560178
 30
0.0
 11
-66.49150514601656
 21
-24.4084900856018
 31
0.0
  0
LINE
  5
1ED
330
75
100
AcDbEntity
  8
0
  6
Continuous
 62
     7
100
AcDbLine
 10
-64.99150514601656
 20
-21.30849008560179
 30
0.0
 11
-66.49150514601656
 21
-20.65849008560179
 31
0.0
  0
LINE
  5
1EE
330
75
100
AcDbEntity
  8
0
  6
Continuous
 62
     7
100
AcDbLine
 10
-66.49150514601656
 20
-20.65849008560179
 30
0.0
 11
-66.49150514601656
 21
-28.1584900856018
 31
0.0
  0
LINE
  5
1EF
330
75
100
AcDbEntity
  8
0
  6
Continuous
 62
     7
100
AcDbLine
 10
-64.99150514601656
 20
-27.5084900856018
 30
0.0
 11
-66.49150514601656
 21
-28.1584900856018
 31
0.0
  0
LINE
  5
1F0
330
75
100
AcDbEntity
  8
0
  6
Continuous
 62
     7
100
AcDbLine
 10
-64.99150514601656
 20
-21.30849008560179
 30
0.0
 11
-64.99150514601656
 21
-27.5084900856018
 31
0.0
  0
LINE
  5
1F1
330
75
100
AcDbEntity
  8
0
  6
Continuous
 62
     7
100
AcDbLine
 10
-54.49150514601657
 20
-21.30849008560179
 30
0.0
 11
-64.99150514601656
 21
-21.30849008560179
 31
0.0
  0
LINE
  5
1F2
330
75
100
AcDbEntity
  8
0
  6
Continuous
 62
     7
100
AcDbLine
 10
-54.49150514601657
 20
-27.5084900856018
 30
0.0
 11
-64.99150514601656
 21
-27.5084900856018
 31
0.0
  0
LINE
  5
1F3
330
75
100
AcDbEntity
  8
0
  6
Continuous
 62
     7
100
AcDbLine
 10
-54.49150514601657
 20
-21.30849008560179
 30
0.0
 11
-54.49150514601657
 21
-27.5084900856018
 31
0.0
  0
ENDBLK
  5
77
330
75
100
AcDbEntity
  8
0
100
AcDbBlockEnd
  0
BLOCK
  5
7A
330
78
100
AcDbEntity
  8
0
100
AcDbBlockBegin
  2
Vordans1
 70
     0
 10
-60.49150514602157
 20
-24.39999999999998
 30
0.0
  3
Vordans1
  1

  0
INSERT
  5
79
330
78
100
AcDbEntity
  8
0
100
AcDbBlockReference
  2
3200425_A_16_12-select__6
 10
-66.49150514601656
 20
-28.1584900856018
 30
0.0
  0
MTEXT
  5
1F4
330
78
100
AcDbEntity
  8
1
 62
     6
100
AcDbMText
 10
-60.49150514602161
 20
-29.14150991439817
 30
0.0
 40
1.0
 41
0.0
 71
     2
 72
     1
  1
 
  7
CONVERTER_11
 73
     1
 44
1.32052821128451
  0
DIMENSION
  5
1FF
330
78
100
AcDbEntity
  8
1
100
AcDbDimension
  2
*D16
 10
-68.49150514601656
 20
-28.1584900856018
 30
0.0
 11
-69.17650514601657
 21
-24.4084900856018
 31
0.0
 70
    33
  1
<>
 71
     5
 42
-1.0
 53
90.0
  3
ME10_DIM_10
100
AcDbAlignedDimension
 13
-66.49150514601656
 23
-20.65849008560179
 33
0.0
 14
-66.49150514601656
 24
-28.1584900856018
 34
0.0
  0
DIMENSION
  5
20A
330
78
100
AcDbEntity
  8
1
100
AcDbDimension
  2
*D17
 10
-54.49150514601656
 20
-30.1584900856018
 30
0.0
 11
-60.49150514601656
 21
-29.5084900856018
 31
0.0
 70
    32
  1
<>
 71
     5
 42
-1.0
 53
0.00013888888889
  3
ME10_DIM_11
100
AcDbAlignedDimension
 13
-66.49150514601656
 23
-28.1584900856018
 33
0.0
 14
-54.49150514601658
 24
-27.5084900856018
 34
0.0
100
AcDbRotatedDimension
  0
ENDBLK
  5
7B
330
78
100
AcDbEntity
  8
0
100
AcDbBlockEnd
  0
BLOCK
  5
1FC
330
1F5
100
AcDbEntity
  8
0
100
AcDbBlockBegin
  2
*D16
 70
     1
 10
0.0
 20
0.0
 30
0.0
  3
*D16
  1

  0
LINE
  5
1F6
330
1F5
100
AcDbEntity
  8
1
  6
Continuous
 62
     2
100
AcDbLine
 10
-68.49150514601656
 20
-28.1584900856018
 30
0.0
 11
-68.49150514601656
 21
-20.65849008560179
 31
0.0
  0
LINE
  5
1F7
330
1F5
100
AcDbEntity
  8
1
  6
Continuous
 62
     2
100
AcDbLine
 10
-66.49150514601656
 20
-20.65849008560179
 30
0.0
 11
-68.79150514601656
 21
-20.65849008560179
 31
0.0
  0
LINE
  5
1F8
330
1F5
100
AcDbEntity
  8
1
  6
Continuous
 62
     2
100
AcDbLine
 10
-66.49150514601656
 20
-28.1584900856018
 30
0.0
 11
-68.79150514601656
 21
-28.1584900856018
 31
0.0
  0
SOLID
  5
1F9
330
1F5
100
AcDbEntity
  8
1
 62
     2
100
AcDbTrace
 10
-68.58366189432775
 20
-27.4584900856018
 30
0.0
 11
-68.39934839770538
 21
-27.4584900856018
 31
0.0
 12
-68.49150514601656
 22
-28.1584900856018
 32
0.0
 13
-68.49150514601656
 23
-28.1584900856018
 33
0.0
  0
SOLID
  5
1FA
330
1F5
100
AcDbEntity
  8
1
 62
     2
100
AcDbTrace
 10
-68.39934839770538
 20
-21.35849008560179
 30
0.0
 11
-68.58366189432775
 21
-21.35849008560179
 31
0.0
 12
-68.49150514601656
 22
-20.65849008560179
 32
0.0
 13
-68.49150514601656
 23
-20.65849008560179
 33
0.0
  0
MTEXT
  5
1FB
330
1F5
100
AcDbEntity
  8
1
 62
     3
100
AcDbMText
 10
-68.86150514601657
 20
-25.2449900856018
 30
0.0
 40
0.7
 41
0.0
 71
     7
 72
     1
  1
\C3;\U+00f8\C3;7,5
  7
CONVERTER_11
 11
0.0
 21
1.0
 31
0.0
 73
     1
 44
0.60024009603842
  0
ENDBLK
  5
1FD
330
1F5
100
AcDbEntity
  8
0
100
AcDbBlockEnd
  0
BLOCK
  5
207
330
200
100
AcDbEntity
  8
0
100
AcDbBlockBegin
  2
*D17
 70
     1
 10
0.0
 20
0.0
 30
0.0
  3
*D17
  1

  0
LINE
  5
201
330
200
100
AcDbEntity
  8
1
  6
Continuous
 62
     2
100
AcDbLine
 10
-54.49150514601656
 20
-30.1584900856018
 30
0.0
 11
-66.49150514601655
 21
-30.1584900856018
 31
0.0
  0
LINE
  5
202
330
200
100
AcDbEntity
  8
1
  6
Continuous
 62
     2
100
AcDbLine
 10
-54.49150514601656
 20
-27.5084900856018
 30
0.0
 11
-54.49150514601656
 21
-30.4584900856018
 31
0.0
  0
LINE
  5
203
330
200
100
AcDbEntity
  8
1
  6
Continuous
 62
     2
100
AcDbLine
 10
-66.49150514601655
 20
-28.1584900856018
 30
0.0
 11
-66.49150514601655
 21
-30.4584900856018
 31
0.0
  0
SOLID
  5
204
330
200
100
AcDbEntity
  8
1
 62
     2
100
AcDbTrace
 10
-55.19150514601657
 20
-30.25064683391297
 30
0.0
 11
-55.19150514601657
 21
-30.06633333729062
 31
0.0
 12
-54.49150514601656
 22
-30.1584900856018
 32
0.0
 13
-54.49150514601656
 23
-30.1584900856018
 33
0.0
  0
SOLID
  5
205
330
200
100
AcDbEntity
  8
1
 62
     2
100
AcDbTrace
 10
-65.79150514601655
 20
-30.06633333729062
 30
0.0
 11
-65.79150514601655
 21
-30.25064683391297
 31
0.0
 12
-66.49150514601655
 22
-30.1584900856018
 32
0.0
 13
-66.49150514601655
 23
-30.1584900856018
 33
0.0
  0
MTEXT
  5
206
330
200
100
AcDbEntity
  8
1
 62
     3
100
AcDbMText
 10
-60.91150514601656
 20
-29.8584900856018
 30
0.0
 40
0.7
 41
0.0
 71
     7
 72
     1
  1
12
  7
CONVERTER_11
 11
0.9999999999970619
 21
2.424068405545306E-6
 31
0.0
 73
     1
 44
0.60024009603842
  0
ENDBLK
  5
208
330
200
100
AcDbEntity
  8
0
100
AcDbBlockEnd
  0
ENDSEC
  0
SECTION
  2
ENTITIES
  0
INSERT
  5
7C
330
1F
100
AcDbEntity
  8
0
100
AcDbBlockReference
  2
A4I_CS
 10
-124.9056485675041
 20
-271.332382905608
 30
0.0
  0
INSERT
  5
7D
330
1F
100
AcDbEntity
  8
0
100
AcDbBlockReference
  2
Allg1
 10
-175.9999999999796
 20
-200.4363100000049
 30
0.0
 41
5.0
 42
5.0
 43
5.0
  0
INSERT
  5
7E
330
1F
100
AcDbEntity
  8
0
100
AcDbBlockReference
  2
Drfsicht1
 10
-302.457525730108
 20
-189.4363124370577
 30
0.0
 41
5.0
 42
5.0
 43
5.0
  0
INSERT
  5
7F
330
1F
100
AcDbEntity
  8
0
100
AcDbBlockReference
  2
Rckans1
 10
-165.00000000005
 20
-121.9999999999999
 30
0.0
 41
5.0
 42
5.0
 43
5.0
  0
INSERT
  5
80
330
1F
100
AcDbEntity
  8
0
100
AcDbBlockReference
  2
SA_Links1
 10
-233.7287671349335
 20
-121.9999999999999
 30
0.0
 41
5.0
 42
5.0
 43
5.0
  0
INSERT
  5
81
330
1F
100
AcDbEntity
  8
0
100
AcDbBlockReference
  2
SA_Rechts1
 10
-381.1862971349333
 20
-121.9999999999999
 30
0.0
 41
5.0
 42
5.0
 43
5.0
  0
INSERT
  5
82
330
1F
100
AcDbEntity
  8
0
100
AcDbBlockReference
  2
Vordans1
 10
-302.4575257301078
 20
-121.9999999999999
 30
0.0
 41
5.0
 42
5.0
 43
5.0
  0
ENDSEC
  0
SECTION
  2
OBJECTS
  0
DICTIONARY
  5
C
330
0
100
AcDbDictionary
281
     1
  3
ACAD_GROUP
350
D
  3
ACAD_LAYOUT
350
1A
  3
ACAD_MATERIAL
350
3B
  3
ACAD_MLEADERSTYLE
350
20D
  3
ACAD_MLINESTYLE
350
17
  3
ACAD_PLOTSETTINGS
350
19
  3
ACAD_PLOTSTYLENAME
350
E
  3
ACAD_VISUALSTYLE
350
2A
  3
AcDbVariableDictionary
350
20B
  0
DICTIONARY
  5
D
102
{ACAD_REACTORS
330
C
102
}
330
C
100
AcDbDictionary
281
     1
  0
DICTIONARY
  5
1A
102
{ACAD_REACTORS
330
C
102
}
330
C
100
AcDbDictionary
281
     1
  3
Layout1
350
1E
  3
Layout2
350
26
  3
Model
350
22
  0
DICTIONARY
  5
3B
102
{ACAD_REACTORS
330
C
102
}
330
C
100
AcDbDictionary
281
     1
  3
ByBlock
350
3D
  3
ByLayer
350
3C
  3
Global
350
3E
  0
DICTIONARY
  5
20D
102
{ACAD_REACTORS
330
C
102
}
330
C
100
AcDbDictionary
281
     1
  0
DICTIONARY
  5
17
102
{ACAD_REACTORS
330
C
102
}
330
C
100
AcDbDictionary
281
     1
  3
Standard
350
18
  0
DICTIONARY
  5
19
102
{ACAD_REACTORS
330
C
102
}
330
C
100
AcDbDictionary
281
     1
  0
ACDBDICTIONARYWDFLT
  5
E
102
{ACAD_REACTORS
330
C
102
}
330
C
100
AcDbDictionary
281
     1
  3
Normal
350
F
100
AcDbDictionaryWithDefault
340
F
  0
DICTIONARY
  5
2A
102
{ACAD_REACTORS
330
C
102
}
330
C
100
AcDbDictionary
281
     1
  3
2dWireframe
350
2F
  3
3D Hidden
350
31
  3
3dWireframe
350
30
  3
Basic
350
32
  3
Brighten
350
36
  3
ColorChange
350
3A
  3
Conceptual
350
34
  3
Dim
350
35
  3
Facepattern
350
39
  3
Flat
350
2B
  3
FlatWithEdges
350
2C
  3
Gouraud
350
2D
  3
GouraudWithEdges
350
2E
  3
Linepattern
350
38
  3
Realistic
350
33
  3
Thicken
350
37
  0
DICTIONARY
  5
20B
102
{ACAD_REACTORS
330
C
102
}
330
C
100
AcDbDictionary
281
     1
  3
DIMASSOC
350
20E
  3
HIDETEXT
350
20F
  0
LAYOUT
  5
1E
102
{ACAD_REACTORS
330
1A
102
}
330
1A
100
AcDbPlotSettings
  1

  2
none_device
  4

  6

 40
0.0
 41
0.0
 42
0.0
 43
0.0
 44
0.0
 45
0.0
 46
0.0
 47
0.0
 48
0.0
 49
0.0
140
0.0
141
0.0
142
1.0
143
1.0
 70
   688
 72
     0
 73
     0
 74
     5
  7

 75
    16
147
1.0
148
0.0
149
0.0
100
AcDbLayout
  1
Layout1
 70
     1
 71
     1
 10
0.0
 20
0.0
 11
12.0
 21
9.0
 12
0.0
 22
0.0
 32
0.0
 14
1.00000000000000E+20
 24
1.00000000000000E+20
 34
1.00000000000000E+20
 15
-1.00000000000000E+20
 25
-1.00000000000000E+20
 35
-1.00000000000000E+20
146
0.0
 13
0.0
 23
0.0
 33
0.0
 16
1.0
 26
0.0
 36
0.0
 17
0.0
 27
1.0
 37
0.0
 76
     0
330
1B
  0
LAYOUT
  5
26
102
{ACAD_REACTORS
330
1A
102
}
330
1A
100
AcDbPlotSettings
  1

  2
none_device
  4

  6

 40
0.0
 41
0.0
 42
0.0
 43
0.0
 44
0.0
 45
0.0
 46
0.0
 47
0.0
 48
0.0
 49
0.0
140
0.0
141
0.0
142
1.0
143
1.0
 70
   688
 72
     0
 73
     0
 74
     5
  7

 75
    16
147
1.0
148
0.0
149
0.0
100
AcDbLayout
  1
Layout2
 70
     1
 71
     2
 10
0.0
 20
0.0
 11
0.0
 21
0.0
 12
0.0
 22
0.0
 32
0.0
 14
0.0
 24
0.0
 34
0.0
 15
0.0
 25
0.0
 35
0.0
146
0.0
 13
0.0
 23
0.0
 33
0.0
 16
1.0
 26
0.0
 36
0.0
 17
0.0
 27
1.0
 37
0.0
 76
     0
330
23
  0
LAYOUT
  5
22
102
{ACAD_REACTORS
330
1A
102
}
330
1A
100
AcDbPlotSettings
  1

  2
none_device
  4

  6

 40
0.0
 41
0.0
 42
0.0
 43
0.0
 44
0.0
 45
0.0
 46
0.0
 47
0.0
 48
0.0
 49
0.0
140
0.0
141
0.0
142
1.0
143
1.0
 70
  1712
 72
     0
 73
     0
 74
     0
  7

 75
     0
147
1.0
148
0.0
149
0.0
100
AcDbLayout
  1
Model
 70
     1
 71
     0
 10
0.0
 20
0.0
 11
12.0
 21
9.0
 12
0.0
 22
0.0
 32
0.0
 14
-416.9056485675032
 24
-271.332382905608
 34
0.0
 15
-119.9056485675051
 25
-61.33238290560786
 35
0.0
146
0.0
 13
0.0
 23
0.0
 33
0.0
 16
1.0
 26
0.0
 36
0.0
 17
0.0
 27
1.0
 37
0.0
 76
     0
330
1F
331
29
  0
MATERIAL
  5
3D
102
{ACAD_REACTORS
330
3B
102
}
102
{ACAD_XDICTIONARY
360
232
102
}
330
3B
100
AcDbMaterial
  1
ByBlock
  0
MATERIAL
  5
3C
102
{ACAD_REACTORS
330
3B
102
}
102
{ACAD_XDICTIONARY
360
230
102
}
330
3B
100
AcDbMaterial
  1
ByLayer
  0
MATERIAL
  5
3E
102
{ACAD_REACTORS
330
3B
102
}
102
{ACAD_XDICTIONARY
360
234
102
}
330
3B
100
AcDbMaterial
  1
Global
  0
MLINESTYLE
  5
18
102
{ACAD_REACTORS
330
17
102
}
330
17
100
AcDbMlineStyle
  2
Standard
 70
     0
  3

 62
   256
 51
90.0
 52
90.0
 71
     2
 49
0.5
 62
   256
  6
BYLAYER
 49
-0.5
 62
   256
  6
BYLAYER
  0
ACDBPLACEHOLDER
  5
F
102
{ACAD_REACTORS
330
E
102
}
330
E
  0
VISUALSTYLE
  5
2F
102
{ACAD_REACTORS
330
2A
102
}
102
{ACAD_XDICTIONARY
360
218
102
}
330
2A
100
AcDbVisualStyle
  2
2dWireframe
 70
     4
 71
     0
 72
     2
 73
     0
 90
        0
 40
-0.6
 41
-30.0
 62
     5
 63
     7
 74
     1
 91
        4
 64
     7
 65
   257
 75
     1
175
     1
 42
1.0
 92
        0
 66
   257
 43
1.0
 76
     1
 77
     6
 78
     2
 67
     7
 79
     5
170
     0
171
     0
290
     0
174
     0
 93
        1
 44
0.0
173
     0
291
     0
 45
0.0
1001
ACAD
1000
AcDbSavedByObjectVersion
1070
     0
  0
VISUALSTYLE
  5
31
102
{ACAD_REACTORS
330
2A
102
}
102
{ACAD_XDICTIONARY
360
21C
102
}
330
2A
100
AcDbVisualStyle
  2
3D Hidden
 70
     6
 71
     1
 72
     2
 73
     2
 90
        0
 40
-0.6
 41
-30.0
 62
     5
 63
     7
 74
     2
 91
        2
 64
     7
 65
   257
 75
     2
175
     1
 42
40.0
 92
        0
 66
   257
 43
1.0
 76
     1
 77
     6
 78
     2
 67
     7
 79
     3
170
     0
171
     0
290
     0
174
     0
 93
        1
 44
0.0
173
     0
291
     0
 45
0.0
1001
ACAD
1000
AcDbSavedByObjectVersion
1070
     0
  0
VISUALSTYLE
  5
30
102
{ACAD_REACTORS
330
2A
102
}
102
{ACAD_XDICTIONARY
360
21A
102
}
330
2A
100
AcDbVisualStyle
  2
3dWireframe
 70
     5
 71
     0
 72
     2
 73
     0
 90
        0
 40
-0.6
 41
-30.0
 62
     5
 63
     7
 74
     1
 91
        4
 64
     7
 65
   257
 75
     1
175
     1
 42
1.0
 92
        0
 66
   257
 43
1.0
 76
     1
 77
     6
 78
     2
 67
     7
 79
     5
170
     0
171
     0
290
     0
174
     0
 93
        1
 44
0.0
173
     0
291
     0
 45
0.0
1001
ACAD
1000
AcDbSavedByObjectVersion
1070
     0
  0
VISUALSTYLE
  5
32
102
{ACAD_REACTORS
330
2A
102
}
102
{ACAD_XDICTIONARY
360
21E
102
}
330
2A
100
AcDbVisualStyle
  2
Basic
 70
     7
 71
     1
 72
     0
 73
     1
 90
        0
 40
-0.6
 41
-30.0
 62
     5
 63
     7
 74
     0
 91
        4
 64
     7
 65
   257
 75
     1
175
     1
 42
1.0
 92
        8
 66
     7
 43
1.0
 76
     1
 77
     6
 78
     2
 67
     7
 79
     5
170
     0
171
     0
290
     0
174
     0
 93
        1
 44
0.0
173
     0
291
     1
 45
0.0
1001
ACAD
1000
AcDbSavedByObjectVersion
1070
     0
  0
VISUALSTYLE
  5
36
102
{ACAD_REACTORS
330
2A
102
}
102
{ACAD_XDICTIONARY
360
226
102
}
330
2A
100
AcDbVisualStyle
  2
Brighten
 70
    12
 71
     2
 72
     2
 73
     0
 90
        0
 40
-0.6
 41
-30.0
 62
     5
 63
     7
 74
     1
 91
        4
 64
     7
 65
   257
 75
     1
175
     1
 42
1.0
 92
        8
 66
     7
 43
1.0
 76
     1
 77
     6
 78
     2
 67
     7
 79
     5
170
     0
171
     0
290
     0
174
     0
 93
        1
 44
50.0
173
     0
291
     1
 45
0.0
1001
ACAD
1000
AcDbSavedByObjectVersion
1070
     0
  0
VISUALSTYLE
  5
3A
102
{ACAD_REACTORS
330
2A
102
}
102
{ACAD_XDICTIONARY
360
22E
102
}
330
2A
100
AcDbVisualStyle
  2
ColorChange
 70
    16
 71
     2
 72
     2
 73
     3
 90
        0
 40
-0.6
 41
-30.0
 62
     5
 63
     8
 74
     1
 91
        4
 64
     7
 65
   257
 75
     1
175
     1
 42
1.0
 92
        8
 66
     8
 43
1.0
 76
     1
 77
     6
 78
     2
 67
     7
 79
     5
170
     0
171
     0
290
     0
174
     0
 93
        1
 44
0.0
173
     0
291
     1
 45
0.0
1001
ACAD
1000
AcDbSavedByObjectVersion
1070
     0
  0
VISUALSTYLE
  5
34
102
{ACAD_REACTORS
330
2A
102
}
102
{ACAD_XDICTIONARY
360
222
102
}
330
2A
100
AcDbVisualStyle
  2
Conceptual
 70
     9
 71
     3
 72
     2
 73
     0
 90
        0
 40
-0.6
 41
-30.0
 62
     5
 63
     7
 74
     2
 91
        2
 64
     7
 65
   257
 75
     1
175
     1
 42
40.0
 92
        8
 66
     7
 43
1.0
 76
     1
 77
     6
 78
     2
 67
     7
 79
     3
170
     0
171
     0
290
     0
174
     0
 93
        1
 44
0.0
173
     0
291
     0
 45
0.0
1001
ACAD
1000
AcDbSavedByObjectVersion
1070
     0
  0
VISUALSTYLE
  5
35
102
{ACAD_REACTORS
330
2A
102
}
102
{ACAD_XDICTIONARY
360
224
102
}
330
2A
100
AcDbVisualStyle
  2
Dim
 70
    11
 71
     2
 72
     2
 73
     0
 90
        0
 40
-0.6
 41
-30.0
 62
     5
 63
     7
 74
     1
 91
        4
 64
     7
 65
   257
 75
     1
175
     1
 42
1.0
 92
        8
 66
     7
 43
1.0
 76
     1
 77
     6
 78
     2
 67
     7
 79
     5
170
     0
171
     0
290
     0
174
     0
 93
        1
 44
-50.0
173
     0
291
     1
 45
0.0
1001
ACAD
1000
AcDbSavedByObjectVersion
1070
     0
  0
VISUALSTYLE
  5
39
102
{ACAD_REACTORS
330
2A
102
}
102
{ACAD_XDICTIONARY
360
22C
102
}
330
2A
100
AcDbVisualStyle
  2
Facepattern
 70
    15
 71
     2
 72
     2
 73
     0
 90
        0
 40
-0.6
 41
-30.0
 62
     5
 63
     7
 74
     1
 91
        4
 64
     7
 65
   257
 75
     1
175
     1
 42
1.0
 92
        8
 66
     7
 43
1.0
 76
     1
 77
     6
 78
     2
 67
     7
 79
     5
170
     0
171
     0
290
     0
174
     0
 93
        1
 44
0.0
173
     0
291
     1
 45
0.0
1001
ACAD
1000
AcDbSavedByObjectVersion
1070
     0
  0
VISUALSTYLE
  5
2B
102
{ACAD_REACTORS
330
2A
102
}
102
{ACAD_XDICTIONARY
360
210
102
}
330
2A
100
AcDbVisualStyle
  2
Flat
 70
     0
 71
     2
 72
     1
 73
     1
 90
        2
 40
-0.6
 41
30.0
 62
     5
 63
     7
 74
     0
 91
        4
 64
     7
 65
   257
 75
     1
175
     1
 42
1.0
 92
        8
 66
     7
 43
1.0
 76
     1
 77
     6
 78
     2
 67
     7
 79
     5
170
     0
171
     0
290
     0
174
     0
 93
       13
 44
0.0
173
     0
291
     1
 45
0.0
1001
ACAD
1000
AcDbSavedByObjectVersion
1070
     0
  0
VISUALSTYLE
  5
2C
102
{ACAD_REACTORS
330
2A
102
}
102
{ACAD_XDICTIONARY
360
212
102
}
330
2A
100
AcDbVisualStyle
  2
FlatWithEdges
 70
     1
 71
     2
 72
     1
 73
     1
 90
        2
 40
-0.6
 41
30.0
 62
     5
 63
     7
 74
     1
 91
        4
 64
     7
 65
   257
 75
     1
175
     1
 42
1.0
 92
        0
 66
   257
 43
1.0
 76
     1
 77
     6
 78
     2
 67
     7
 79
     5
170
     0
171
     0
290
     0
174
     0
 93
       13
 44
0.0
173
     0
291
     1
 45
0.0
1001
ACAD
1000
AcDbSavedByObjectVersion
1070
     0
  0
VISUALSTYLE
  5
2D
102
{ACAD_REACTORS
330
2A
102
}
102
{ACAD_XDICTIONARY
360
214
102
}
330
2A
100
AcDbVisualStyle
  2
Gouraud
 70
     2
 71
     2
 72
     2
 73
     1
 90
        2
 40
-0.6
 41
30.0
 62
     5
 63
     7
 74
     0
 91
        4
 64
     7
 65
   257
 75
     1
175
     1
 42
1.0
 92
        0
 66
     7
 43
1.0
 76
     1
 77
     6
 78
     2
 67
     7
 79
     5
170
     0
171
     0
290
     0
174
     0
 93
       13
 44
0.0
173
     0
291
     1
 45
0.0
1001
ACAD
1000
AcDbSavedByObjectVersion
1070
     0
  0
VISUALSTYLE
  5
2E
102
{ACAD_REACTORS
330
2A
102
}
102
{ACAD_XDICTIONARY
360
216
102
}
330
2A
100
AcDbVisualStyle
  2
GouraudWithEdges
 70
     3
 71
     2
 72
     2
 73
     1
 90
        2
 40
-0.6
 41
30.0
 62
     5
 63
     7
 74
     1
 91
        4
 64
     7
 65
   257
 75
     1
175
     1
 42
1.0
 92
        0
 66
   257
 43
1.0
 76
     1
 77
     6
 78
     2
 67
     7
 79
     5
170
     0
171
     0
290
     0
174
     0
 93
       13
 44
0.0
173
     0
291
     1
 45
0.0
1001
ACAD
1000
AcDbSavedByObjectVersion
1070
     0
  0
VISUALSTYLE
  5
38
102
{ACAD_REACTORS
330
2A
102
}
102
{ACAD_XDICTIONARY
360
22A
102
}
330
2A
100
AcDbVisualStyle
  2
Linepattern
 70
    14
 71
     2
 72
     2
 73
     0
 90
        0
 40
-0.6
 41
-30.0
 62
     5
 63
     7
 74
     1
 91
        4
 64
     7
 65
   257
 75
     7
175
     7
 42
1.0
 92
        8
 66
     7
 43
1.0
 76
     1
 77
     6
 78
     2
 67
     7
 79
     5
170
     0
171
     0
290
     0
174
     0
 93
        1
 44
0.0
173
     0
291
     1
 45
0.0
1001
ACAD
1000
AcDbSavedByObjectVersion
1070
     0
  0
VISUALSTYLE
  5
33
102
{ACAD_REACTORS
330
2A
102
}
102
{ACAD_XDICTIONARY
360
220
102
}
330
2A
100
AcDbVisualStyle
  2
Realistic
 70
     8
 71
     2
 72
     2
 73
     0
 90
        0
 40
-0.6
 41
-30.0
 62
     5
 63
     7
 74
     1
 91
        0
 64
     7
 65
   257
 75
     1
175
     1
 42
1.0
 92
        8
 66
     8
 43
1.0
 76
     1
 77
     6
 78
     2
 67
     7
 79
     5
170
     0
171
     0
290
     0
174
     0
 93
       13
 44
0.0
173
     0
291
     0
 45
0.0
1001
ACAD
1000
AcDbSavedByObjectVersion
1070
     0
  0
VISUALSTYLE
  5
37
102
{ACAD_REACTORS
330
2A
102
}
102
{ACAD_XDICTIONARY
360
228
102
}
330
2A
100
AcDbVisualStyle
  2
Thicken
 70
    13
 71
     2
 72
     2
 73
     0
 90
        0
 40
-0.6
 41
-30.0
 62
     5
 63
     7
 74
     1
 91
        4
 64
     7
 65
   257
 75
     1
175
     1
 42
1.0
 92
       12
 66
     7
 43
1.0
 76
     1
 77
     6
 78
     2
 67
     7
 79
     5
170
     0
171
     0
290
     0
174
     0
 93
        1
 44
0.0
173
     0
291
     1
 45
0.0
1001
ACAD
1000
AcDbSavedByObjectVersion
1070
     0
  0
DICTIONARYVAR
  5
20E
102
{ACAD_REACTORS
330
20B
102
}
330
20B
100
DictionaryVariables
280
     0
  1
2
  0
DICTIONARYVAR
  5
20F
102
{ACAD_REACTORS
330
20B
102
}
330
20B
100
DictionaryVariables
280
     0
  1
1
  0
DICTIONARY
  5
232
330
3D
100
AcDbDictionary
280
     1
281
     1
  3
ACAD_XREC_ROUNDTRIP
360
233
  0
DICTIONARY
  5
230
330
3C
100
AcDbDictionary
280
     1
281
     1
  3
ACAD_XREC_ROUNDTRIP
360
231
  0
DICTIONARY
  5
234
330
3E
100
AcDbDictionary
280
     1
281
     1
  3
ACAD_XREC_ROUNDTRIP
360
235
  0
DICTIONARY
  5
218
330
2F
100
AcDbDictionary
280
     1
281
     1
  3
ACAD_XREC_ROUNDTRIP
360
219
  0
DICTIONARY
  5
21C
330
31
100
AcDbDictionary
280
     1
281
     1
  3
ACAD_XREC_ROUNDTRIP
360
21D
  0
DICTIONARY
  5
21A
330
30
100
AcDbDictionary
280
     1
281
     1
  3
ACAD_XREC_ROUNDTRIP
360
21B
  0
DICTIONARY
  5
21E
330
32
100
AcDbDictionary
280
     1
281
     1
  3
ACAD_XREC_ROUNDTRIP
360
21F
  0
DICTIONARY
  5
226
330
36
100
AcDbDictionary
280
     1
281
     1
  3
ACAD_XREC_ROUNDTRIP
360
227
  0
DICTIONARY
  5
22E
330
3A
100
AcDbDictionary
280
     1
281
     1
  3
ACAD_XREC_ROUNDTRIP
360
22F
  0
DICTIONARY
  5
222
330
34
100
AcDbDictionary
280
     1
281
     1
  3
ACAD_XREC_ROUNDTRIP
360
223
  0
DICTIONARY
  5
224
330
35
100
AcDbDictionary
280
     1
281
     1
  3
ACAD_XREC_ROUNDTRIP
360
225
  0
DICTIONARY
  5
22C
330
39
100
AcDbDictionary
280
     1
281
     1
  3
ACAD_XREC_ROUNDTRIP
360
22D
  0
DICTIONARY
  5
210
330
2B
100
AcDbDictionary
280
     1
281
     1
  3
ACAD_XREC_ROUNDTRIP
360
211
  0
DICTIONARY
  5
212
330
2C
100
AcDbDictionary
280
     1
281
     1
  3
ACAD_XREC_ROUNDTRIP
360
213
  0
DICTIONARY
  5
214
330
2D
100
AcDbDictionary
280
     1
281
     1
  3
ACAD_XREC_ROUNDTRIP
360
215
  0
DICTIONARY
  5
216
330
2E
100
AcDbDictionary
280
     1
281
     1
  3
ACAD_XREC_ROUNDTRIP
360
217
  0
DICTIONARY
  5
22A
330
38
100
AcDbDictionary
280
     1
281
     1
  3
ACAD_XREC_ROUNDTRIP
360
22B
  0
DICTIONARY
  5
220
330
33
100
AcDbDictionary
280
     1
281
     1
  3
ACAD_XREC_ROUNDTRIP
360
221
  0
DICTIONARY
  5
228
330
37
100
AcDbDictionary
280
     1
281
     1
  3
ACAD_XREC_ROUNDTRIP
360
229
  0
XRECORD
  5
233
102
{ACAD_REACTORS
330
232
102
}
330
232
100
AcDbXrecord
280
     1
102
MATERIAL
148
0.0
149
0.0
149
0.0
 93
        0
 94
      127
282
     0
 72
     1
 77
     1
171
     1
175
     1
179
     1
273
     0
  0
XRECORD
  5
231
102
{ACAD_REACTORS
330
230
102
}
330
230
100
AcDbXrecord
280
     1
102
MATERIAL
148
0.0
149
0.0
149
0.0
 93
        0
 94
      127
282
     0
 72
     1
 77
     1
171
     1
175
     1
179
     1
273
     0
  0
XRECORD
  5
235
102
{ACAD_REACTORS
330
234
102
}
330
234
100
AcDbXrecord
280
     1
102
MATERIAL
148
0.0
149
0.0
149
0.0
 93
        0
 94
      127
282
     0
 72
     1
 77
     1
171
     1
175
     1
179
     1
273
     0
  0
XRECORD
  5
219
102
{ACAD_REACTORS
330
218
102
}
330
218
100
AcDbXrecord
280
     1
102
RTVSPropertyOp0
 70
     1
102
RTVSPropertyOp1
 70
     1
102
RTVSPropertyOp2
 70
     1
102
RTVSPropertyOp3
 70
     1
102
RTVSPropertyOp4
 70
     1
102
RTVSPropertyOp5
 70
     1
102
RTVSPropertyOp6
 70
     1
102
RTVSPropertyOp7
 70
     1
102
RTVSPropertyOp8
 70
     1
102
RTVSPropertyOp9
 70
     1
102
RTVSPropertyOp10
 70
     1
102
RTVSPropertyOp11
 70
     1
102
RTVSPropertyOp12
 70
     1
102
RTVSPropertyOp13
 70
     1
102
RTVSPropertyOp14
 70
     1
102
RTVSPropertyOp15
 70
     1
102
RTVSPropertyOp16
 70
     1
102
RTVSPropertyOp17
 70
     1
102
RTVSPropertyOp18
 70
     1
102
RTVSPropertyOp19
 70
     1
102
RTVSPropertyOp20
 70
     1
102
RTVSPropertyOp21
 70
     1
102
RTVSPropertyOp22
 70
     1
102
RTVSPropertyOp23
 70
     1
102
RTVSPropertyOp24
 70
     1
102
RTVSPropertyOp25
 70
     1
102
RTVSPropertyOp26
 70
     1
102
RTVSPropertyOp27
 70
     1
102
RTVSPropertyOp28
 70
     1
102
RTVSPropertyOp29
 70
     1
102
RTVSPropertyOp30
 70
     1
102
RTVSPropertyOp31
 70
     1
102
RTVSPropertyOp32
 70
     1
  0
XRECORD
  5
21D
102
{ACAD_REACTORS
330
21C
102
}
330
21C
100
AcDbXrecord
280
     1
102
RTVSPropertyOp0
 70
     1
102
RTVSPropertyOp1
 70
     1
102
RTVSPropertyOp2
 70
     1
102
RTVSPropertyOp3
 70
     1
102
RTVSPropertyOp4
 70
     1
102
RTVSPropertyOp5
 70
     1
102
RTVSPropertyOp6
 70
     1
102
RTVSPropertyOp7
 70
     1
102
RTVSPropertyOp8
 70
     1
102
RTVSPropertyOp9
 70
     1
102
RTVSPropertyOp10
 70
     1
102
RTVSPropertyOp11
 70
     1
102
RTVSPropertyOp12
 70
     1
102
RTVSPropertyOp13
 70
     1
102
RTVSPropertyOp14
 70
     1
102
RTVSPropertyOp15
 70
     1
102
RTVSPropertyOp16
 70
     1
102
RTVSPropertyOp17
 70
     1
102
RTVSPropertyOp18
 70
     1
102
RTVSPropertyOp19
 70
     1
102
RTVSPropertyOp20
 70
     1
102
RTVSPropertyOp21
 70
     1
102
RTVSPropertyOp22
 70
     1
102
RTVSPropertyOp23
 70
     1
102
RTVSPropertyOp24
 70
     1
102
RTVSPropertyOp25
 70
     1
102
RTVSPropertyOp26
 70
     1
102
RTVSPropertyOp27
 70
     1
102
RTVSPropertyOp28
 70
     1
102
RTVSPropertyOp29
 70
     1
102
RTVSPropertyOp30
 70
     1
102
RTVSPropertyOp31
 70
     1
102
RTVSPropertyOp32
 70
     1
  0
XRECORD
  5
21B
102
{ACAD_REACTORS
330
21A
102
}
330
21A
100
AcDbXrecord
280
     1
102
RTVSPropertyOp0
 70
     1
102
RTVSPropertyOp1
 70
     1
102
RTVSPropertyOp2
 70
     1
102
RTVSPropertyOp3
 70
     1
102
RTVSPropertyOp4
 70
     1
102
RTVSPropertyOp5
 70
     1
102
RTVSPropertyOp6
 70
     1
102
RTVSPropertyOp7
 70
     1
102
RTVSPropertyOp8
 70
     1
102
RTVSPropertyOp9
 70
     1
102
RTVSPropertyOp10
 70
     1
102
RTVSPropertyOp11
 70
     1
102
RTVSPropertyOp12
 70
     1
102
RTVSPropertyOp13
 70
     1
102
RTVSPropertyOp14
 70
     1
102
RTVSPropertyOp15
 70
     1
102
RTVSPropertyOp16
 70
     1
102
RTVSPropertyOp17
 70
     1
102
RTVSPropertyOp18
 70
     1
102
RTVSPropertyOp19
 70
     1
102
RTVSPropertyOp20
 70
     1
102
RTVSPropertyOp21
 70
     1
102
RTVSPropertyOp22
 70
     1
102
RTVSPropertyOp23
 70
     1
102
RTVSPropertyOp24
 70
     1
102
RTVSPropertyOp25
 70
     1
102
RTVSPropertyOp26
 70
     1
102
RTVSPropertyOp27
 70
     1
102
RTVSPropertyOp28
 70
     1
102
RTVSPropertyOp29
 70
     1
102
RTVSPropertyOp30
 70
     1
102
RTVSPropertyOp31
 70
     1
102
RTVSPropertyOp32
 70
     1
  0
XRECORD
  5
21F
102
{ACAD_REACTORS
330
21E
102
}
330
21E
100
AcDbXrecord
280
     1
102
RTVSPropertyOp0
 70
     1
102
RTVSPropertyOp1
 70
     1
102
RTVSPropertyOp2
 70
     1
102
RTVSPropertyOp3
 70
     1
102
RTVSPropertyOp4
 70
     1
102
RTVSPropertyOp5
 70
     1
102
RTVSPropertyOp6
 70
     1
102
RTVSPropertyOp7
 70
     1
102
RTVSPropertyOp8
 70
     1
102
RTVSPropertyOp9
 70
     1
102
RTVSPropertyOp10
 70
     1
102
RTVSPropertyOp11
 70
     1
102
RTVSPropertyOp12
 70
     1
102
RTVSPropertyOp13
 70
     1
102
RTVSPropertyOp14
 70
     1
102
RTVSPropertyOp15
 70
     1
102
RTVSPropertyOp16
 70
     1
102
RTVSPropertyOp17
 70
     1
102
RTVSPropertyOp18
 70
     1
102
RTVSPropertyOp19
 70
     1
102
RTVSPropertyOp20
 70
     1
102
RTVSPropertyOp21
 70
     1
102
RTVSPropertyOp22
 70
     1
102
RTVSPropertyOp23
 70
     1
102
RTVSPropertyOp24
 70
     1
102
RTVSPropertyOp25
 70
     1
102
RTVSPropertyOp26
 70
     1
102
RTVSPropertyOp27
 70
     1
102
RTVSPropertyOp28
 70
     1
102
RTVSPropertyOp29
 70
     1
102
RTVSPropertyOp30
 70
     1
102
RTVSPropertyOp31
 70
     1
102
RTVSPropertyOp32
 70
     1
  0
XRECORD
  5
227
102
{ACAD_REACTORS
330
226
102
}
330
226
100
AcDbXrecord
280
     1
102
RTVSPropertyOp0
 70
     1
102
RTVSPropertyOp1
 70
     1
102
RTVSPropertyOp2
 70
     1
102
RTVSPropertyOp3
 70
     1
102
RTVSPropertyOp4
 70
     1
102
RTVSPropertyOp5
 70
     1
102
RTVSPropertyOp6
 70
     1
102
RTVSPropertyOp7
 70
     1
102
RTVSPropertyOp8
 70
     1
102
RTVSPropertyOp9
 70
     1
102
RTVSPropertyOp10
 70
     1
102
RTVSPropertyOp11
 70
     1
102
RTVSPropertyOp12
 70
     1
102
RTVSPropertyOp13
 70
     1
102
RTVSPropertyOp14
 70
     1
102
RTVSPropertyOp15
 70
     1
102
RTVSPropertyOp16
 70
     1
102
RTVSPropertyOp17
 70
     1
102
RTVSPropertyOp18
 70
     1
102
RTVSPropertyOp19
 70
     1
102
RTVSPropertyOp20
 70
     1
102
RTVSPropertyOp21
 70
     1
102
RTVSPropertyOp22
 70
     1
102
RTVSPropertyOp23
 70
     1
102
RTVSPropertyOp24
 70
     1
102
RTVSPropertyOp25
 70
     1
102
RTVSPropertyOp26
 70
     1
102
RTVSPropertyOp27
 70
     1
102
RTVSPropertyOp28
 70
     1
102
RTVSPropertyOp29
 70
     1
102
RTVSPropertyOp30
 70
     1
102
RTVSPropertyOp31
 70
     1
102
RTVSPropertyOp32
 70
     1
  0
XRECORD
  5
22F
102
{ACAD_REACTORS
330
22E
102
}
330
22E
100
AcDbXrecord
280
     1
102
RTVSPropertyOp0
 70
     1
102
RTVSPropertyOp1
 70
     1
102
RTVSPropertyOp2
 70
     1
102
RTVSPropertyOp3
 70
     1
102
RTVSPropertyOp4
 70
     1
102
RTVSPropertyOp5
 70
     1
102
RTVSPropertyOp6
 70
     1
102
RTVSPropertyOp7
 70
     1
102
RTVSPropertyOp8
 70
     1
102
RTVSPropertyOp9
 70
     1
102
RTVSPropertyOp10
 70
     1
102
RTVSPropertyOp11
 70
     1
102
RTVSPropertyOp12
 70
     1
102
RTVSPropertyOp13
 70
     1
102
RTVSPropertyOp14
 70
     1
102
RTVSPropertyOp15
 70
     1
102
RTVSPropertyOp16
 70
     1
102
RTVSPropertyOp17
 70
     1
102
RTVSPropertyOp18
 70
     1
102
RTVSPropertyOp19
 70
     1
102
RTVSPropertyOp20
 70
     1
102
RTVSPropertyOp21
 70
     1
102
RTVSPropertyOp22
 70
     1
102
RTVSPropertyOp23
 70
     1
102
RTVSPropertyOp24
 70
     1
102
RTVSPropertyOp25
 70
     1
102
RTVSPropertyOp26
 70
     1
102
RTVSPropertyOp27
 70
     1
102
RTVSPropertyOp28
 70
     1
102
RTVSPropertyOp29
 70
     1
102
RTVSPropertyOp30
 70
     1
102
RTVSPropertyOp31
 70
     1
102
RTVSPropertyOp32
 70
     1
  0
XRECORD
  5
223
102
{ACAD_REACTORS
330
222
102
}
330
222
100
AcDbXrecord
280
     1
102
RTVSPropertyOp0
 70
     1
102
RTVSPropertyOp1
 70
     1
102
RTVSPropertyOp2
 70
     1
102
RTVSPropertyOp3
 70
     1
102
RTVSPropertyOp4
 70
     1
102
RTVSPropertyOp5
 70
     1
102
RTVSPropertyOp6
 70
     1
102
RTVSPropertyOp7
 70
     1
102
RTVSPropertyOp8
 70
     1
102
RTVSPropertyOp9
 70
     1
102
RTVSPropertyOp10
 70
     1
102
RTVSPropertyOp11
 70
     1
102
RTVSPropertyOp12
 70
     1
102
RTVSPropertyOp13
 70
     1
102
RTVSPropertyOp14
 70
     1
102
RTVSPropertyOp15
 70
     1
102
RTVSPropertyOp16
 70
     1
102
RTVSPropertyOp17
 70
     1
102
RTVSPropertyOp18
 70
     1
102
RTVSPropertyOp19
 70
     1
102
RTVSPropertyOp20
 70
     1
102
RTVSPropertyOp21
 70
     1
102
RTVSPropertyOp22
 70
     1
102
RTVSPropertyOp23
 70
     1
102
RTVSPropertyOp24
 70
     1
102
RTVSPropertyOp25
 70
     1
102
RTVSPropertyOp26
 70
     1
102
RTVSPropertyOp27
 70
     1
102
RTVSPropertyOp28
 70
     1
102
RTVSPropertyOp29
 70
     1
102
RTVSPropertyOp30
 70
     1
102
RTVSPropertyOp31
 70
     1
102
RTVSPropertyOp32
 70
     1
  0
XRECORD
  5
225
102
{ACAD_REACTORS
330
224
102
}
330
224
100
AcDbXrecord
280
     1
102
RTVSPropertyOp0
 70
     1
102
RTVSPropertyOp1
 70
     1
102
RTVSPropertyOp2
 70
     1
102
RTVSPropertyOp3
 70
     1
102
RTVSPropertyOp4
 70
     1
102
RTVSPropertyOp5
 70
     1
102
RTVSPropertyOp6
 70
     1
102
RTVSPropertyOp7
 70
     1
102
RTVSPropertyOp8
 70
     1
102
RTVSPropertyOp9
 70
     1
102
RTVSPropertyOp10
 70
     1
102
RTVSPropertyOp11
 70
     1
102
RTVSPropertyOp12
 70
     1
102
RTVSPropertyOp13
 70
     1
102
RTVSPropertyOp14
 70
     1
102
RTVSPropertyOp15
 70
     1
102
RTVSPropertyOp16
 70
     1
102
RTVSPropertyOp17
 70
     1
102
RTVSPropertyOp18
 70
     1
102
RTVSPropertyOp19
 70
     1
102
RTVSPropertyOp20
 70
     1
102
RTVSPropertyOp21
 70
     1
102
RTVSPropertyOp22
 70
     1
102
RTVSPropertyOp23
 70
     1
102
RTVSPropertyOp24
 70
     1
102
RTVSPropertyOp25
 70
     1
102
RTVSPropertyOp26
 70
     1
102
RTVSPropertyOp27
 70
     1
102
RTVSPropertyOp28
 70
     1
102
RTVSPropertyOp29
 70
     1
102
RTVSPropertyOp30
 70
     1
102
RTVSPropertyOp31
 70
     1
102
RTVSPropertyOp32
 70
     1
  0
XRECORD
  5
22D
102
{ACAD_REACTORS
330
22C
102
}
330
22C
100
AcDbXrecord
280
     1
102
RTVSPropertyOp0
 70
     1
102
RTVSPropertyOp1
 70
     1
102
RTVSPropertyOp2
 70
     1
102
RTVSPropertyOp3
 70
     1
102
RTVSPropertyOp4
 70
     1
102
RTVSPropertyOp5
 70
     1
102
RTVSPropertyOp6
 70
     1
102
RTVSPropertyOp7
 70
     1
102
RTVSPropertyOp8
 70
     1
102
RTVSPropertyOp9
 70
     1
102
RTVSPropertyOp10
 70
     1
102
RTVSPropertyOp11
 70
     1
102
RTVSPropertyOp12
 70
     1
102
RTVSPropertyOp13
 70
     1
102
RTVSPropertyOp14
 70
     1
102
RTVSPropertyOp15
 70
     1
102
RTVSPropertyOp16
 70
     1
102
RTVSPropertyOp17
 70
     1
102
RTVSPropertyOp18
 70
     1
102
RTVSPropertyOp19
 70
     1
102
RTVSPropertyOp20
 70
     1
102
RTVSPropertyOp21
 70
     1
102
RTVSPropertyOp22
 70
     1
102
RTVSPropertyOp23
 70
     1
102
RTVSPropertyOp24
 70
     1
102
RTVSPropertyOp25
 70
     1
102
RTVSPropertyOp26
 70
     1
102
RTVSPropertyOp27
 70
     1
102
RTVSPropertyOp28
 70
     1
102
RTVSPropertyOp29
 70
     1
102
RTVSPropertyOp30
 70
     1
102
RTVSPropertyOp31
 70
     1
102
RTVSPropertyOp32
 70
     1
  0
XRECORD
  5
211
102
{ACAD_REACTORS
330
210
102
}
330
210
100
AcDbXrecord
280
     1
102
RTVSPropertyOp0
 70
     1
102
RTVSPropertyOp1
 70
     1
102
RTVSPropertyOp2
 70
     1
102
RTVSPropertyOp3
 70
     1
102
RTVSPropertyOp4
 70
     1
102
RTVSPropertyOp5
 70
     1
102
RTVSPropertyOp6
 70
     1
102
RTVSPropertyOp7
 70
     1
102
RTVSPropertyOp8
 70
     1
102
RTVSPropertyOp9
 70
     1
102
RTVSPropertyOp10
 70
     1
102
RTVSPropertyOp11
 70
     1
102
RTVSPropertyOp12
 70
     1
102
RTVSPropertyOp13
 70
     1
102
RTVSPropertyOp14
 70
     1
102
RTVSPropertyOp15
 70
     1
102
RTVSPropertyOp16
 70
     1
102
RTVSPropertyOp17
 70
     1
102
RTVSPropertyOp18
 70
     1
102
RTVSPropertyOp19
 70
     1
102
RTVSPropertyOp20
 70
     1
102
RTVSPropertyOp21
 70
     1
102
RTVSPropertyOp22
 70
     1
102
RTVSPropertyOp23
 70
     1
102
RTVSPropertyOp24
 70
     1
102
RTVSPropertyOp25
 70
     1
102
RTVSPropertyOp26
 70
     1
102
RTVSPropertyOp27
 70
     1
102
RTVSPropertyOp28
 70
     1
102
RTVSPropertyOp29
 70
     1
102
RTVSPropertyOp30
 70
     1
102
RTVSPropertyOp31
 70
     1
102
RTVSPropertyOp32
 70
     1
  0
XRECORD
  5
213
102
{ACAD_REACTORS
330
212
102
}
330
212
100
AcDbXrecord
280
     1
102
RTVSPropertyOp0
 70
     1
102
RTVSPropertyOp1
 70
     1
102
RTVSPropertyOp2
 70
     1
102
RTVSPropertyOp3
 70
     1
102
RTVSPropertyOp4
 70
     1
102
RTVSPropertyOp5
 70
     1
102
RTVSPropertyOp6
 70
     1
102
RTVSPropertyOp7
 70
     1
102
RTVSPropertyOp8
 70
     1
102
RTVSPropertyOp9
 70
     1
102
RTVSPropertyOp10
 70
     1
102
RTVSPropertyOp11
 70
     1
102
RTVSPropertyOp12
 70
     1
102
RTVSPropertyOp13
 70
     1
102
RTVSPropertyOp14
 70
     1
102
RTVSPropertyOp15
 70
     1
102
RTVSPropertyOp16
 70
     1
102
RTVSPropertyOp17
 70
     1
102
RTVSPropertyOp18
 70
     1
102
RTVSPropertyOp19
 70
     1
102
RTVSPropertyOp20
 70
     1
102
RTVSPropertyOp21
 70
     1
102
RTVSPropertyOp22
 70
     1
102
RTVSPropertyOp23
 70
     1
102
RTVSPropertyOp24
 70
     1
102
RTVSPropertyOp25
 70
     1
102
RTVSPropertyOp26
 70
     1
102
RTVSPropertyOp27
 70
     1
102
RTVSPropertyOp28
 70
     1
102
RTVSPropertyOp29
 70
     1
102
RTVSPropertyOp30
 70
     1
102
RTVSPropertyOp31
 70
     1
102
RTVSPropertyOp32
 70
     1
  0
XRECORD
  5
215
102
{ACAD_REACTORS
330
214
102
}
330
214
100
AcDbXrecord
280
     1
102
RTVSPropertyOp0
 70
     1
102
RTVSPropertyOp1
 70
     1
102
RTVSPropertyOp2
 70
     1
102
RTVSPropertyOp3
 70
     1
102
RTVSPropertyOp4
 70
     1
102
RTVSPropertyOp5
 70
     1
102
RTVSPropertyOp6
 70
     1
102
RTVSPropertyOp7
 70
     1
102
RTVSPropertyOp8
 70
     1
102
RTVSPropertyOp9
 70
     1
102
RTVSPropertyOp10
 70
     1
102
RTVSPropertyOp11
 70
     1
102
RTVSPropertyOp12
 70
     1
102
RTVSPropertyOp13
 70
     1
102
RTVSPropertyOp14
 70
     1
102
RTVSPropertyOp15
 70
     1
102
RTVSPropertyOp16
 70
     1
102
RTVSPropertyOp17
 70
     1
102
RTVSPropertyOp18
 70
     1
102
RTVSPropertyOp19
 70
     1
102
RTVSPropertyOp20
 70
     1
102
RTVSPropertyOp21
 70
     1
102
RTVSPropertyOp22
 70
     1
102
RTVSPropertyOp23
 70
     1
102
RTVSPropertyOp24
 70
     1
102
RTVSPropertyOp25
 70
     1
102
RTVSPropertyOp26
 70
     1
102
RTVSPropertyOp27
 70
     1
102
RTVSPropertyOp28
 70
     1
102
RTVSPropertyOp29
 70
     1
102
RTVSPropertyOp30
 70
     1
102
RTVSPropertyOp31
 70
     1
102
RTVSPropertyOp32
 70
     1
  0
XRECORD
  5
217
102
{ACAD_REACTORS
330
216
102
}
330
216
100
AcDbXrecord
280
     1
102
RTVSPropertyOp0
 70
     1
102
RTVSPropertyOp1
 70
     1
102
RTVSPropertyOp2
 70
     1
102
RTVSPropertyOp3
 70
     1
102
RTVSPropertyOp4
 70
     1
102
RTVSPropertyOp5
 70
     1
102
RTVSPropertyOp6
 70
     1
102
RTVSPropertyOp7
 70
     1
102
RTVSPropertyOp8
 70
     1
102
RTVSPropertyOp9
 70
     1
102
RTVSPropertyOp10
 70
     1
102
RTVSPropertyOp11
 70
     1
102
RTVSPropertyOp12
 70
     1
102
RTVSPropertyOp13
 70
     1
102
RTVSPropertyOp14
 70
     1
102
RTVSPropertyOp15
 70
     1
102
RTVSPropertyOp16
 70
     1
102
RTVSPropertyOp17
 70
     1
102
RTVSPropertyOp18
 70
     1
102
RTVSPropertyOp19
 70
     1
102
RTVSPropertyOp20
 70
     1
102
RTVSPropertyOp21
 70
     1
102
RTVSPropertyOp22
 70
     1
102
RTVSPropertyOp23
 70
     1
102
RTVSPropertyOp24
 70
     1
102
RTVSPropertyOp25
 70
     1
102
RTVSPropertyOp26
 70
     1
102
RTVSPropertyOp27
 70
     1
102
RTVSPropertyOp28
 70
     1
102
RTVSPropertyOp29
 70
     1
102
RTVSPropertyOp30
 70
     1
102
RTVSPropertyOp31
 70
     1
102
RTVSPropertyOp32
 70
     1
  0
XRECORD
  5
22B
102
{ACAD_REACTORS
330
22A
102
}
330
22A
100
AcDbXrecord
280
     1
102
RTVSPropertyOp0
 70
     1
102
RTVSPropertyOp1
 70
     1
102
RTVSPropertyOp2
 70
     1
102
RTVSPropertyOp3
 70
     1
102
RTVSPropertyOp4
 70
     1
102
RTVSPropertyOp5
 70
     1
102
RTVSPropertyOp6
 70
     1
102
RTVSPropertyOp7
 70
     1
102
RTVSPropertyOp8
 70
     1
102
RTVSPropertyOp9
 70
     1
102
RTVSPropertyOp10
 70
     1
102
RTVSPropertyOp11
 70
     1
102
RTVSPropertyOp12
 70
     1
102
RTVSPropertyOp13
 70
     1
102
RTVSPropertyOp14
 70
     1
102
RTVSPropertyOp15
 70
     1
102
RTVSPropertyOp16
 70
     1
102
RTVSPropertyOp17
 70
     1
102
RTVSPropertyOp18
 70
     1
102
RTVSPropertyOp19
 70
     1
102
RTVSPropertyOp20
 70
     1
102
RTVSPropertyOp21
 70
     1
102
RTVSPropertyOp22
 70
     1
102
RTVSPropertyOp23
 70
     1
102
RTVSPropertyOp24
 70
     1
102
RTVSPropertyOp25
 70
     1
102
RTVSPropertyOp26
 70
     1
102
RTVSPropertyOp27
 70
     1
102
RTVSPropertyOp28
 70
     1
102
RTVSPropertyOp29
 70
     1
102
RTVSPropertyOp30
 70
     1
102
RTVSPropertyOp31
 70
     1
102
RTVSPropertyOp32
 70
     1
  0
XRECORD
  5
221
102
{ACAD_REACTORS
330
220
102
}
330
220
100
AcDbXrecord
280
     1
102
RTVSPropertyOp0
 70
     1
102
RTVSPropertyOp1
 70
     1
102
RTVSPropertyOp2
 70
     1
102
RTVSPropertyOp3
 70
     1
102
RTVSPropertyOp4
 70
     1
102
RTVSPropertyOp5
 70
     1
102
RTVSPropertyOp6
 70
     1
102
RTVSPropertyOp7
 70
     1
102
RTVSPropertyOp8
 70
     1
102
RTVSPropertyOp9
 70
     1
102
RTVSPropertyOp10
 70
     1
102
RTVSPropertyOp11
 70
     1
102
RTVSPropertyOp12
 70
     1
102
RTVSPropertyOp13
 70
     1
102
RTVSPropertyOp14
 70
     1
102
RTVSPropertyOp15
 70
     1
102
RTVSPropertyOp16
 70
     1
102
RTVSPropertyOp17
 70
     1
102
RTVSPropertyOp18
 70
     1
102
RTVSPropertyOp19
 70
     1
102
RTVSPropertyOp20
 70
     1
102
RTVSPropertyOp21
 70
     1
102
RTVSPropertyOp22
 70
     1
102
RTVSPropertyOp23
 70
     1
102
RTVSPropertyOp24
 70
     1
102
RTVSPropertyOp25
 70
     1
102
RTVSPropertyOp26
 70
     1
102
RTVSPropertyOp27
 70
     1
102
RTVSPropertyOp28
 70
     1
102
RTVSPropertyOp29
 70
     1
102
RTVSPropertyOp30
 70
     1
102
RTVSPropertyOp31
 70
     1
102
RTVSPropertyOp32
 70
     1
  0
XRECORD
  5
229
102
{ACAD_REACTORS
330
228
102
}
330
228
100
AcDbXrecord
280
     1
102
RTVSPropertyOp0
 70
     1
102
RTVSPropertyOp1
 70
     1
102
RTVSPropertyOp2
 70
     1
102
RTVSPropertyOp3
 70
     1
102
RTVSPropertyOp4
 70
     1
102
RTVSPropertyOp5
 70
     1
102
RTVSPropertyOp6
 70
     1
102
RTVSPropertyOp7
 70
     1
102
RTVSPropertyOp8
 70
     1
102
RTVSPropertyOp9
 70
     1
102
RTVSPropertyOp10
 70
     1
102
RTVSPropertyOp11
 70
     1
102
RTVSPropertyOp12
 70
     1
102
RTVSPropertyOp13
 70
     1
102
RTVSPropertyOp14
 70
     1
102
RTVSPropertyOp15
 70
     1
102
RTVSPropertyOp16
 70
     1
102
RTVSPropertyOp17
 70
     1
102
RTVSPropertyOp18
 70
     1
102
RTVSPropertyOp19
 70
     1
102
RTVSPropertyOp20
 70
     1
102
RTVSPropertyOp21
 70
     1
102
RTVSPropertyOp22
 70
     1
102
RTVSPropertyOp23
 70
     1
102
RTVSPropertyOp24
 70
     1
102
RTVSPropertyOp25
 70
     1
102
RTVSPropertyOp26
 70
     1
102
RTVSPropertyOp27
 70
     1
102
RTVSPropertyOp28
 70
     1
102
RTVSPropertyOp29
 70
     1
102
RTVSPropertyOp30
 70
     1
102
RTVSPropertyOp31
 70
     1
102
RTVSPropertyOp32
 70
     1
  0
ENDSEC
  0
EOF
